<?xml version="1.0" encoding="UTF-8" standalone="no"?>
<!DOCTYPE svg  PUBLIC '-//W3C//DTD SVG 1.1//EN'  'http://www.w3.org/Graphics/SVG/1.1/DTD/svg11.dtd'>
<svg xmlns="http://www.w3.org/2000/svg">
<defs>
<font id="Lato-Bold" horiz-adv-x="1160">
<font-face underline-position="-412" font-weight="700" descent="-400" panose-1="2 15 5 2 2 2 4 3 2 3" units-per-em="2000" unicode-range="U+0020-25CA" bbox="-610 -390 2302 1898" x-height="1026" underline-thickness="99" font-family="Lato" ascent="1600" cap-height="1446"/>
<missing-glyph horiz-adv-x="2000"/>
<glyph glyph-name=".notdef" horiz-adv-x="2000"/>
<glyph glyph-name="glyph1" horiz-adv-x="0"/>
<glyph glyph-name="glyph1" horiz-adv-x="0"/>
<glyph glyph-name="nonmarkingreturn" horiz-adv-x="666"/>
<glyph glyph-name="space" horiz-adv-x="486" unicode=" "/>
<glyph glyph-name="space" horiz-adv-x="486" unicode=" "/>
<glyph glyph-name="exclam" horiz-adv-x="562" unicode="!" d="M127 136q0 31 11.5 59t32 48t48.5 32t60 12q31 0 59 -12t48.5 -32t32.5 -48t12 -59q0 -32 -12 -59.5t-32.5 -47.5t-48.5 -31.5t-59 -11.5q-32 0 -60 11.5t-48.5 31.5t-32 47.5t-11.5 59.5zM398 1446v-572q0 -91 -9 -178.5t-23 -185.5h-168q-14 98 -23 185.5t-9 178.5v572 h232z"/>
<glyph glyph-name="quotedbl" horiz-adv-x="791" unicode='&quot;' d="M319 1446v-288l-22 -156q-8 -44 -26 -67.5t-60 -23.5q-37 0 -57 23.5t-28 67.5l-22 156v288h215zM687 1446v-288l-22 -156q-8 -44 -26 -67.5t-60 -23.5q-37 0 -57 23.5t-28 67.5l-22 156v288h215z"/>
<glyph glyph-name="numbersign" d="M1131 1040l-18 -103q-8 -38 -32 -56.5t-77 -18.5h-100l-51 -276h141q38 0 52 -19t14 -49q0 -14 -3 -32l-13 -78h-217l-76 -408h-114q-17 0 -32 8t-25 22t-14.5 32.5t0.5 39.5l58 306h-204l-59 -318q-8 -48 -40 -69t-71 -21h-110l76 408h-115q-38 0 -51.5 19t-13.5 47 q0 14 3 33l13 79h190l51 276h-214l19 103q8 38 32 56.5t77 18.5h112l61 322q8 40 37 62t68 22h113l-77 -406h205l77 406h110q38 0 58.5 -22t20.5 -49q0 -7 -1 -15l-61 -320h201zM701 862h-205l-51 -276h205z" unicode="#"/>
<glyph glyph-name="dollar" d="M684 831q72 -22 143 -48.5t127.5 -68.5t91.5 -104.5t35 -156.5q0 -93 -31 -174.5t-91 -144t-147 -102t-199 -46.5l-12 -147q-1 -23 -19.5 -42.5t-46.5 -19.5h-91l18 214q-117 16 -220 64t-175 119l76 113q10 15 26.5 24.5t35.5 9.5q22 0 47 -15.5t57 -36t73 -41.5t97 -31 l37 447q-71 20 -140.5 47t-125 71.5t-89.5 112.5t-34 170q0 76 30 148.5t88.5 129.5t143.5 94t195 42l11 126q2 24 20 43t47 19h91l-16 -196q106 -17 183 -60.5t133 -97.5l-60 -91q-13 -20 -27 -30t-34 -10q-15 0 -36 9.5t-47 23t-58.5 27.5t-71.5 23zM567 1250 q-56 -7 -95 -23.5t-64 -40.5t-36.5 -54t-11.5 -63q0 -38 13.5 -66.5t37 -51t55.5 -40t70 -32.5zM631 193q106 14 160.5 71.5t54.5 150.5q0 38 -13.5 66.5t-38 50.5t-57.5 38t-72 30z" unicode="$"/>
<glyph glyph-name="percent" horiz-adv-x="1639" unicode="%" d="M1371 340q0 58 -11 97t-30.5 63t-46 34.5t-56.5 10.5t-56 -10.5t-45 -34.5t-29.5 -63t-10.5 -97q0 -56 10.5 -94t29.5 -61t45 -33t56 -10t56.5 10t46 33t30.5 61t11 94zM1562 340q0 -82 -27.5 -148t-73.5 -112.5t-107 -72t-127 -25.5q-72 0 -133 25.5t-105.5 72 t-69.5 112.5t-25 148q0 84 25 152t69.5 115t105.5 72.5t133 25.5t133.5 -25.5t106 -72.5t70 -115t25.5 -152zM1226 1407q13 15 30.5 27t49.5 12h180l-1074 -1409q-13 -16 -31 -26.5t-44 -10.5h-184zM555 1096q0 58 -11.5 97t-31 63t-46 34.5t-56.5 10.5t-56 -10.5 t-44.5 -34.5t-29.5 -63t-11 -97q0 -56 11 -93.5t29.5 -60.5t44.5 -33t56 -10t56.5 10t46 33t31 60.5t11.5 93.5zM745 1096q0 -82 -27.5 -148t-73.5 -112.5t-107 -71.5t-127 -25q-72 0 -133 25t-105.5 71.5t-69.5 112.5t-25 148q0 84 25 152t69.5 115t105.5 72.5t133 25.5 t133.5 -25.5t106.5 -72.5t70 -115t25 -152z"/>
<glyph glyph-name="ampersand" horiz-adv-x="1447" unicode="&amp;" d="M1441 0h-242q-38 0 -61.5 9t-49.5 38l-100 103q-95 -78 -213 -122t-255 -44q-83 0 -163.5 28.5t-143.5 82.5t-101.5 130.5t-38.5 172.5q0 68 22 128.5t61 112.5t93 93.5t118 71.5q-54 75 -78 146.5t-24 142.5q0 75 27.5 142.5t79.5 117.5t128 79.5t172 29.5 q88 0 157.5 -27t119 -72t78 -103t33.5 -120l-157 -33q-7 -1 -14 -1q-34 0 -50 39q-9 26 -23.5 49.5t-34.5 41t-47 28t-62 10.5q-42 0 -75 -14.5t-55.5 -39t-34.5 -57t-12 -68.5q0 -30 6 -58t20 -56t36.5 -57.5t55.5 -63.5l384 -399q33 63 53 133t26 142q3 23 16 37t36 14 h154q-1 -132 -38 -252t-106 -221zM478 676q-80 -52 -116.5 -117.5t-36.5 -140.5q0 -55 19 -99t51.5 -74.5t76 -47t92.5 -16.5q88 0 161 27.5t132 76.5z"/>
<glyph glyph-name="quotesingle" horiz-adv-x="423" unicode="&apos;" d="M319 1446v-288l-22 -156q-8 -44 -26 -67.5t-60 -23.5q-37 0 -57 23.5t-28 67.5l-22 156v288h215z"/>
<glyph glyph-name="parenleft" horiz-adv-x="549" unicode="(" d="M287 627q0 -206 50 -405t143 -374q10 -20 11 -30t1 -14q0 -10 -3.5 -20t-12 -18.5t-18.5 -14.5l-110 -67q-74 114 -126 229t-85 232t-48.5 237t-15.5 245t15.5 245.5t48.5 237.5t85 231.5t126 228.5l110 -66q10 -6 18.5 -14.5t12 -18.5t3.5 -20q0 -4 -1 -14t-11 -31 q-93 -174 -143 -373.5t-50 -405.5z"/>
<glyph glyph-name="parenright" horiz-adv-x="549" unicode=")" d="M261 627q0 206 -49.5 405.5t-142.5 373.5q-11 21 -12 31t-1 14q0 10 3.5 20t12 18.5t19.5 14.5l110 66q74 -114 126 -228.5t85 -231.5t48 -237.5t15 -245.5t-15 -245t-48 -237t-85 -232t-126 -229l-110 67q-11 6 -19.5 14.5t-12 18.5t-3.5 20q0 4 1 14t12 30 q93 175 142.5 374t49.5 405z"/>
<glyph glyph-name="asterisk" horiz-adv-x="850" unicode="*" d="M589 1205q-18 -11 -35.5 -18.5t-36.5 -10.5q39 -6 72 -28l159 -93l-58 -100l-159 93q-18 11 -33.5 23t-26.5 26q13 -33 13 -76v-184h-118v183q0 20 2.5 39t8.5 36q-11 -14 -26 -25t-32 -22l-158 -92l-59 100l159 92q38 22 72 28q-35 6 -72 29l-159 93l58 100l159 -94 q18 -11 33 -22.5t27 -25.5q-13 33 -13 75v185h118v-183q0 -21 -2.5 -40t-9.5 -36q12 14 27 25t32 22l158 92l59 -100z"/>
<glyph glyph-name="plus" d="M1068 580h-388v-412h-201v412h-386v183h386v410h201v-410h388v-183z" unicode="+"/>
<glyph glyph-name="comma" horiz-adv-x="468" unicode="," d="M118 -245q-18 15 -18 37q0 8 5.5 18t13.5 18q11 12 27 29.5t32 40t29.5 49t20.5 56.5q-32 0 -58 11.5t-44.5 31.5t-29 47t-10.5 59q0 28 10.5 52.5t29.5 43t46 29t59 10.5q38 0 66.5 -13.5t47 -37t28 -54t9.5 -64.5q0 -48 -14.5 -101t-42.5 -106t-69.5 -103t-94.5 -92z "/>
<glyph glyph-name="period" horiz-adv-x="475" unicode="." d="M86 136q0 31 11.5 59t31.5 48t48 32t60 12t59.5 -12t48 -32t32.5 -48t12 -59q0 -32 -12 -59.5t-32.5 -47.5t-48 -31.5t-59.5 -11.5t-60 11.5t-48 31.5t-31.5 47.5t-11.5 59.5z"/>
<glyph glyph-name="slash" horiz-adv-x="932" unicode="/" d="M294 -3q-17 -46 -54.5 -69t-76.5 -23h-105l584 1494q16 42 49 64.5t77 22.5h106z"/>
<glyph glyph-name="zero" d="M855 723q0 157 -23 260t-61.5 164t-88.5 85.5t-104 24.5q-53 0 -102.5 -24.5t-87.5 -85.5t-60.5 -164t-22.5 -260t22.5 -260t60.5 -164t87.5 -85.5t102.5 -24.5q54 0 104 24.5t88.5 85.5t61.5 164t23 260zM1110 723q0 -189 -40.5 -328.5t-112 -230.5t-169 -135.5 t-210.5 -44.5t-209.5 44.5t-167.5 135.5t-111 230.5t-40 328.5q0 190 40 329t111 230t167.5 135.5t209.5 44.5t210.5 -44.5t169 -135.5t112 -230t40.5 -329z" unicode="0"/>
<glyph glyph-name="one" d="M1035 185v-185h-800v185h293v843q0 50 3 103l-208 -174q-18 -14 -35.5 -17.5t-33 -0.5t-27.5 10.5t-18 16.5l-78 107l441 375h203v-1263h260z" unicode="1"/>
<glyph glyph-name="two" d="M981 230q40 0 63.5 -22.5t23.5 -59.5v-148h-992v82q0 25 10.5 52.5t33.5 49.5l439 440q55 56 98.5 107t72.5 101t44.5 101.5t15.5 108.5q0 52 -15 91.5t-42.5 66.5t-66 40.5t-86.5 13.5q-44 0 -81.5 -12.5t-66.5 -35t-49 -52.5t-30 -66q-17 -46 -39.5 -58.5t-49.5 -12.5 q-15 0 -33 3l-130 23q15 104 58 182.5t107.5 131t148 79t179.5 26.5q100 0 183 -29.5t142 -83.5t92 -130t33 -169q0 -80 -23.5 -148t-63 -130t-92.5 -120t-111 -118l-326 -333q47 14 93.5 21.5t88.5 7.5h371z" unicode="2"/>
<glyph glyph-name="three" d="M108 1043q15 104 58 182.5t107.5 131t148 79t179.5 26.5q100 0 180.5 -28.5t137.5 -79t87.5 -118.5t30.5 -147q0 -69 -15.5 -121.5t-44.5 -91.5t-72 -66t-97 -45q130 -41 194 -125t64 -211q0 -108 -40 -191t-108 -139.5t-157.5 -85.5t-189.5 -29q-109 0 -190 25t-141 74 t-102 120t-72 164l109 45q29 12 56 12q13 0 37.5 -5.5t41.5 -37.5q18 -35 39.5 -69t51.5 -60.5t70.5 -43t96.5 -16.5q63 0 110 20.5t78.5 53.5t47 73.5t15.5 81.5q0 52 -11 94.5t-46 72.5t-100.5 47t-175.5 17v176q91 1 151 17t95.5 44.5t49.5 68.5t14 88q0 102 -57 155 t-152 53q-44 0 -81 -12.5t-66.5 -35t-49.5 -52.5t-30 -66q-17 -46 -39.5 -58.5t-50.5 -12.5q-15 0 -32 3z" unicode="3"/>
<glyph glyph-name="four" d="M1109 545v-143q0 -20 -13 -34.5t-37 -14.5h-132v-353h-215v353h-610q-25 0 -44 15.5t-24 38.5l-26 125l685 915h234v-902h182zM712 545v473q0 67 9 148l-449 -621h440z" unicode="4"/>
<glyph glyph-name="five" d="M406 921q48 10 92 14.5t85 4.5q114 0 201 -34t146 -94t89 -140.5t30 -173.5q0 -115 -40.5 -210t-112.5 -162.5t-170.5 -104.5t-214.5 -37q-68 0 -129 14t-114.5 37.5t-99 54t-81.5 64.5l76 105q24 34 63 34q25 0 51 -16t59.5 -35t79 -35t109.5 -16q68 0 120 22t86.5 61.5 t52 94t17.5 118.5q0 118 -68.5 184.5t-202.5 66.5q-103 0 -211 -38l-154 44l120 702h714v-105q0 -53 -33 -86t-112 -33h-397z" unicode="5"/>
<glyph glyph-name="six" d="M578 186q59 0 108.5 20t85 56t55.5 84.5t20 105.5q0 62 -19 111.5t-54 84t-84 52.5t-108 18t-107 -20t-82 -55.5t-53 -84t-19 -104.5q0 -60 16.5 -109.5t49 -84.5t80.5 -54.5t111 -19.5zM522 921l-50 -62q42 21 90.5 32.5t104.5 11.5q82 0 159.5 -27t136.5 -81.5 t95 -135.5t36 -189q0 -101 -37 -189.5t-104 -154.5t-161.5 -104t-208.5 -38q-116 0 -208 37t-157 103.5t-99.5 160t-34.5 207.5q0 102 41.5 209.5t128.5 223.5l345 463q18 24 52.5 41t79.5 17h220z" unicode="6"/>
<glyph glyph-name="seven" d="M1092 1446v-107q0 -48 -10 -77.5t-20 -49.5l-548 -1128q-17 -35 -48 -59.5t-83 -24.5h-179l559 1105q19 34 37.5 62.5t41.5 54.5h-692q-23 0 -40 17t-17 40v167h999z" unicode="7"/>
<glyph glyph-name="eight" d="M824 754q132 -43 195 -131.5t63 -216.5q0 -96 -36.5 -174t-102.5 -133t-158.5 -85t-204.5 -30t-204.5 30t-158.5 85t-102.5 133t-36.5 174q0 128 63 216.5t195 131.5q-105 44 -157.5 125t-52.5 195q0 82 33.5 153t93.5 123.5t143.5 82t183.5 29.5t183.5 -29.5t143.5 -82 t93.5 -123.5t33.5 -153q0 -114 -52.5 -195t-157.5 -125zM580 1276q-55 0 -95 -17t-66.5 -45.5t-39 -65.5t-12.5 -78q0 -43 10.5 -83.5t35.5 -72t66 -50.5t101 -19t101 19t66 50.5t35.5 72t10.5 83.5q0 41 -13 78t-39 65.5t-66 45.5t-95 17zM580 177q61 0 107 17.5t77.5 48.5 t47.5 74t16 93q0 119 -66 180t-182 61t-182 -61t-66 -180q0 -50 16 -93t47.5 -74t77.5 -48.5t107 -17.5z" unicode="8"/>
<glyph glyph-name="nine" d="M658 561q17 21 32 41t29 40q-50 -32 -110 -48.5t-126 -16.5q-75 0 -147 26t-128 78.5t-90.5 130t-34.5 181.5q0 97 36 182t101 149t156 101t201 37q111 0 199.5 -35t151 -98t96 -151t33.5 -193q0 -67 -11.5 -127t-32.5 -115.5t-51 -108.5t-67 -105l-331 -472 q-17 -24 -51 -40.5t-77 -16.5h-227zM330 1012q0 -121 62.5 -184.5t177.5 -63.5q60 0 107 19t79 52t48.5 78t16.5 97q0 59 -18 105.5t-51 78.5t-78.5 49t-99.5 17q-56 0 -101 -18.5t-77 -51.5t-49 -78.5t-17 -99.5z" unicode="9"/>
<glyph glyph-name="colon" horiz-adv-x="515" unicode=":" d="M106 136q0 31 11.5 59t31.5 48t48 32t60 12t59.5 -12t48 -32t32.5 -48t12 -59q0 -32 -12 -59.5t-32.5 -47.5t-48 -31.5t-59.5 -11.5t-60 11.5t-48 31.5t-31.5 47.5t-11.5 59.5zM106 849q0 31 11.5 59t31.5 48t48 32t60 12t59.5 -12t48 -32t32.5 -48t12 -59 q0 -32 -12 -59.5t-32.5 -47.5t-48 -31.5t-59.5 -11.5t-60 11.5t-48 31.5t-31.5 47.5t-11.5 59.5z"/>
<glyph glyph-name="semicolon" horiz-adv-x="541" unicode=";" d="M156 -245q-18 15 -18 37q0 8 5.5 18t13.5 18q11 12 27 29.5t32 40t29.5 49t20.5 56.5q-32 0 -58 11.5t-44.5 31.5t-29 47t-10.5 59q0 28 10.5 52.5t29.5 43t46 29t59 10.5q38 0 66.5 -13.5t47 -37t28 -54t9.5 -64.5q0 -48 -14.5 -101t-42.5 -106t-69.5 -103t-94.5 -92z M117 849q0 31 11.5 59t31.5 48t48 32t60 12t59.5 -12t48 -32t32.5 -48t12 -59q0 -32 -12 -59.5t-32.5 -47.5t-48 -31.5t-59.5 -11.5t-60 11.5t-48 31.5t-31.5 47.5t-11.5 59.5z"/>
<glyph glyph-name="less" d="M538 710q-47 -23 -103 -36q56 -13 103 -36l363 -187q23 -11 33 -28t10 -37v-176l-793 414v100l793 413v-176q0 -20 -10 -36.5t-33 -28.5z" unicode="&lt;"/>
<glyph glyph-name="equal" d="M137 940h886v-183h-886v183zM137 588h886v-184h-886v184z" unicode="="/>
<glyph glyph-name="greater" d="M1009 724v-100l-793 -414v176q0 20 10 37t33 28l363 187q47 23 103 36q-56 13 -103 36l-363 186q-23 12 -33 28.5t-10 36.5v176z" unicode="&gt;"/>
<glyph glyph-name="question" horiz-adv-x="920" unicode="?" d="M260 136q0 31 11.5 59t31.5 48t48 32t60 12t59.5 -12t48 -32t32.5 -48t12 -59q0 -32 -12 -59.5t-32.5 -47.5t-48 -31.5t-59.5 -11.5t-60 11.5t-48 31.5t-31.5 47.5t-11.5 59.5zM71 1315q34 30 74.5 57t87.5 47t102 31.5t119 11.5q87 0 158.5 -24t122.5 -68.5t79 -107.5 t28 -141q0 -76 -22 -131.5t-55 -96.5t-72.5 -71t-74.5 -56.5t-60.5 -52t-30.5 -57.5l-23 -146h-169l-17 163q-1 11 -1 21q0 34 17 65.5t49.5 61t72.5 57t75 60t58.5 73t23.5 96.5q0 36 -13.5 64.5t-37.5 49t-57.5 31.5t-72.5 11q-57 0 -96.5 -12.5t-67 -28t-46.5 -28 t-34 -12.5q-36 0 -52 30z"/>
<glyph glyph-name="at" horiz-adv-x="1687" unicode="@" d="M1146 546q-16 -62 -16 -102q0 -42 12.5 -66t34.5 -33t50 -9q42 0 79.5 26.5t65.5 74.5t44.5 114t16.5 144q0 130 -40.5 229t-113.5 165.5t-173.5 100t-220.5 33.5q-132 0 -244 -49.5t-194.5 -135.5t-129 -203t-46.5 -252q0 -164 51 -288.5t140 -208t209.5 -125.5 t260.5 -42q77 0 144 8.5t123 23t102 33t82 39.5q26 15 46 9t29 -30l34 -89q-104 -68 -243 -111t-317 -43q-181 0 -335 57t-266.5 163.5t-176 259.5t-63.5 344q0 107 27.5 208t78.5 189.5t123 162.5t160 127t190.5 82.5t214.5 29.5q142 0 272.5 -47.5t231 -136t160.5 -216 t60 -287.5q0 -107 -31.5 -200.5t-88 -162.5t-133 -108.5t-166.5 -39.5q-69 0 -122 32t-73 103q-59 -72 -125 -103t-143 -31q-63 0 -109.5 22t-78 60.5t-47 91t-15.5 114.5q0 57 14.5 115.5t43.5 113t72.5 102t102 83t132 56t161.5 20.5q78 0 133 -12t106 -34zM1029 802 q-32 6 -66 6q-62 0 -116 -27t-93.5 -73t-62.5 -105.5t-23 -123.5t27.5 -99.5t80.5 -35.5q26 0 52.5 8t50.5 28.5t44 54.5t33 85z"/>
<glyph glyph-name="A" horiz-adv-x="1389" unicode="A" d="M1400 0h-208q-35 0 -57 17.5t-33 43.5l-108 295h-599l-108 -295q-8 -23 -31 -42t-57 -19h-210l569 1446h274zM925 546l-176 481q-13 32 -27 76t-28 95q-13 -51 -27 -95.5t-27 -77.5l-175 -479h460z"/>
<glyph glyph-name="B" horiz-adv-x="1317" unicode="B" d="M659 1446q142 0 243 -27t165.5 -77t94.5 -121t30 -160q0 -51 -15 -97.5t-46.5 -87t-80 -73.5t-115.5 -56q298 -67 298 -322q0 -92 -35 -170t-102 -134.5t-165 -88.5t-224 -32h-546v1446h498zM430 1238v-418h214q138 0 208.5 50t70.5 159q0 113 -64 161t-200 48h-229z M702 210q75 0 126 18t81.5 48t44 70t13.5 85q0 47 -15 84.5t-47 64t-82.5 40.5t-121.5 14h-271v-424h272z"/>
<glyph glyph-name="C" horiz-adv-x="1323" unicode="C" d="M1154 341q22 0 39 -17l106 -115q-88 -109 -216.5 -167t-308.5 -58q-161 0 -289.5 55t-219.5 153t-139.5 234t-48.5 297q0 163 52 298.5t146.5 233.5t225.5 152.5t290 54.5q158 0 280.5 -52t208.5 -136l-90 -125q-8 -12 -20.5 -21t-34.5 -9q-15 0 -31 8.5t-35 21t-44 27.5 t-58 27.5t-76.5 21t-100.5 8.5q-97 0 -177.5 -34.5t-138.5 -100t-90 -160t-32 -215.5q0 -122 34.5 -217t93.5 -160t139 -99.5t172 -34.5q55 0 99.5 6t82 19t71 33.5t66.5 50.5q10 9 21 14.5t23 5.5z"/>
<glyph glyph-name="D" horiz-adv-x="1521" unicode="D" d="M1169 723q0 119 -31.5 213.5t-91 160t-144 100.5t-190.5 35h-281v-1018h281q106 0 190.5 35t144 100.5t91 160t31.5 213.5zM1445 723q0 -159 -53 -292t-149 -229t-231 -149t-300 -53h-551v1446h551q165 0 300 -53.5t231 -149t149 -228.5t53 -292z"/>
<glyph glyph-name="E" horiz-adv-x="1150" unicode="E" d="M431 1232v-401h506v-207h-506v-409h642v-215h-912v1446h912v-214h-642z"/>
<glyph glyph-name="F" horiz-adv-x="1132" unicode="F" d="M431 1232v-428h542v-215h-542v-589h-270v1446h912v-214h-642z"/>
<glyph glyph-name="G" horiz-adv-x="1452" unicode="G" d="M1353 725v-585q-110 -81 -234.5 -118.5t-266.5 -37.5q-177 0 -320.5 55t-245 153t-156.5 234t-55 297q0 163 53 299t150.5 234t236.5 152t312 54q88 0 164.5 -14t142 -38.5t119.5 -59.5t99 -77l-77 -122q-18 -29 -36 -33t-25 -4q-23 0 -49 16l-66 38t-73.5 33t-91 23 t-116.5 9q-107 0 -193.5 -36t-147.5 -103t-94 -161t-33 -210q0 -124 35.5 -221.5t100 -165t155.5 -103t203 -35.5q80 0 143 17t123 46v262h-182q-26 0 -40.5 14.5t-14.5 35.5v152h480z"/>
<glyph glyph-name="H" horiz-adv-x="1541" unicode="H" d="M1380 1446v-1446h-270v632h-679v-632h-270v1446h270v-622h679v622h270z"/>
<glyph glyph-name="I" horiz-adv-x="593" unicode="I" d="M431 0h-270v1446h270v-1446z"/>
<glyph glyph-name="J" horiz-adv-x="859" unicode="J" d="M712 514q0 -122 -30 -220t-89.5 -167t-148.5 -106t-207 -37q-54 0 -106 6.5t-109 20.5q3 40 7 80t7 80q3 22 17.5 35.5t41.5 13.5q17 0 44.5 -7t69.5 -7q57 0 101 16.5t73.5 52.5t44.5 93.5t15 139.5v938h269v-932z"/>
<glyph glyph-name="K" horiz-adv-x="1371" unicode="K" d="M430 840h63q38 0 63 10.5t43 33.5l399 505q25 32 52.5 44.5t69.5 12.5h232l-487 -601q-43 -55 -89 -78q33 -12 59.5 -33.5t50.5 -56.5l502 -677h-237q-48 0 -71.5 13.5t-39.5 39.5l-409 534q-19 27 -44 38t-72 11h-85v-636h-269v1446h269v-606z"/>
<glyph glyph-name="L" horiz-adv-x="1039" unicode="L" d="M1008 222v-222h-847v1446h269v-1224h578z"/>
<glyph glyph-name="M" horiz-adv-x="1890" unicode="M" d="M1729 1446v-1446h-237v934q0 56 6 121l-437 -821q-31 -59 -95 -59h-38q-64 0 -95 59l-442 824q3 -33 5 -65t2 -59v-934h-237v1446h203q18 0 31 -1t23.5 -5t19 -13t16.5 -24l433 -803q17 -32 31.5 -66t28.5 -70q14 37 29 71.5t32 66.5l427 801q8 15 17 24t19.5 13t23.5 5 t31 1h203z"/>
<glyph glyph-name="N" horiz-adv-x="1541" unicode="N" d="M1380 1446v-1446h-138q-32 0 -53.5 10.5t-41.5 35.5l-755 964q6 -66 6 -122v-888h-237v1446h141q17 0 29.5 -1.5t22 -6t18.5 -13t20 -22.5l758 -968q-3 35 -5 69t-2 63v879h237z"/>
<glyph glyph-name="O" horiz-adv-x="1616" unicode="O" d="M1265 723q0 119 -32 213.5t-91 160.5t-143.5 101t-190.5 35t-190.5 -35t-144 -101t-91.5 -160.5t-32 -213.5t32 -213.5t91.5 -160t144 -100.5t190.5 -35t190.5 35t143.5 100.5t91 160t32 213.5zM1540 723q0 -159 -52.5 -294.5t-148.5 -234.5t-231 -154.5t-300 -55.5 q-164 0 -299 55.5t-231.5 154.5t-149.5 234.5t-53 294.5t53 294.5t149.5 234.5t231.5 154.5t299 55.5q110 0 207 -25.5t178 -72t145.5 -113t109.5 -148.5t68.5 -178t23.5 -202z"/>
<glyph glyph-name="P" horiz-adv-x="1238" unicode="P" d="M631 1446q145 0 251 -34t175 -95t102.5 -146t33.5 -186q0 -105 -35 -192.5t-105 -150.5t-175.5 -98t-246.5 -35h-201v-509h-269v1446h470zM631 719q74 0 129 18.5t91.5 53t54.5 84t18 110.5q0 58 -18 105t-54 80t-91 50.5t-130 17.5h-201v-519h201z"/>
<glyph glyph-name="Q" horiz-adv-x="1616" unicode="Q" d="M1616 -283h-222q-48 0 -86.5 13t-70.5 48l-212 234q-51 -14 -104.5 -21t-111.5 -7q-164 0 -299 55.5t-231.5 154.5t-149.5 234.5t-53 294.5t53 294.5t149.5 234.5t231.5 154.5t299 55.5q110 0 207 -25.5t178 -72t145.5 -113t109.5 -148.5t68.5 -178t23.5 -202 q0 -97 -20 -185.5t-57.5 -165.5t-91.5 -141.5t-123 -113.5zM351 723q0 -119 32 -213.5t91.5 -160t144 -100.5t190.5 -35t190.5 35t143.5 100.5t91 160t32 213.5t-32 213.5t-91 160.5t-143.5 101t-190.5 35t-190.5 -35t-144 -101t-91.5 -160.5t-32 -213.5z"/>
<glyph glyph-name="R" horiz-adv-x="1286" unicode="R" d="M1290 0h-243q-69 0 -100 54l-304 463q-17 26 -37.5 37t-60.5 11h-115v-565h-269v1446h441q147 0 252.5 -30.5t173 -85.5t99.5 -131.5t32 -168.5q0 -73 -21.5 -138t-62 -118t-100 -93t-135.5 -63q26 -15 48 -35.5t40 -48.5zM598 758q76 0 132.5 19t93 52.5t54.5 79.5 t18 101q0 110 -72.5 169t-221.5 59h-172v-480h168z"/>
<glyph glyph-name="S" horiz-adv-x="1097" unicode="S" d="M931 1183q-12 -21 -25.5 -30.5t-33.5 -9.5q-21 0 -45.5 15.5t-58.5 34.5t-79.5 34.5t-107.5 15.5q-56 0 -98 -13.5t-70.5 -37.5t-42.5 -57.5t-14 -73.5q0 -51 28.5 -85t75.5 -58t107 -43t123 -40.5t123 -50t107 -72t75.5 -106.5t28.5 -153q0 -98 -33.5 -183.5t-98 -149 t-157.5 -100t-213 -36.5q-69 0 -136 13.5t-128.5 38.5t-115.5 60t-96 78l79 129q10 14 26 23.5t34 9.5q25 0 54 -20.5t69 -45.5t93.5 -45.5t128.5 -20.5q115 0 178 54.5t63 156.5q0 57 -28.5 93t-75.5 60.5t-107 41.5t-122 37t-122 48t-107 73t-75.5 112.5t-28.5 166.5 q0 79 31.5 154t91.5 133t148 93t202 35q128 0 236 -40t184 -112z"/>
<glyph glyph-name="T" horiz-adv-x="1200" unicode="T" d="M1171 1225h-436v-1225h-269v1225h-436v221h1141v-221z"/>
<glyph glyph-name="U" horiz-adv-x="1485" unicode="U" d="M743 217q78 0 139.5 26t103.5 73t64.5 114t22.5 150v866h269v-866q0 -129 -41.5 -238.5t-119 -189t-188.5 -124t-250 -44.5q-140 0 -251 44.5t-188.5 124t-119 189t-41.5 238.5v866h269v-865q0 -83 22.5 -150t65 -114.5t104 -73.5t139.5 -26z"/>
<glyph glyph-name="V" horiz-adv-x="1389" unicode="V" d="M1400 1446l-584 -1446h-243l-584 1446h216q35 0 57 -17t33 -44l341 -882q17 -43 32.5 -94.5t29.5 -107.5q12 56 26 107.5t31 94.5l339 882q8 23 31.5 42t57.5 19h217z"/>
<glyph glyph-name="W" horiz-adv-x="2102" unicode="W" d="M2085 1446l-449 -1446h-243l-316 988q-13 36 -24 88q-6 -25 -12 -47t-13 -41l-319 -988h-244l-448 1446h225q35 0 58.5 -16.5t31.5 -44.5l246 -865q8 -32 15.5 -69.5t15.5 -78.5q8 42 17.5 79t20.5 69l284 865q8 23 31.5 42t57.5 19h79q35 0 57 -17t33 -44l283 -865 q21 -62 38 -143q13 79 29 143l246 865q6 25 30.5 43t58.5 18h211z"/>
<glyph glyph-name="X" horiz-adv-x="1341" unicode="X" d="M1336 0h-268q-28 0 -44.5 14t-26.5 32l-335 555q-8 -25 -19 -43l-321 -512q-12 -17 -27.5 -31.5t-40.5 -14.5h-251l480 744l-461 702h268q28 0 40.5 -7.5t23.5 -24.5l329 -530q10 25 24 50l302 475q11 19 24 28t33 9h257l-465 -691z"/>
<glyph glyph-name="Y" horiz-adv-x="1296" unicode="Y" d="M782 560v-560h-268v560l-527 886h237q35 0 55.5 -17t34.5 -43l264 -483q23 -43 40.5 -81t31.5 -76q13 38 30 76t39 81l263 483q11 22 33 41t56 19h238z"/>
<glyph glyph-name="Z" horiz-adv-x="1211" unicode="Z" d="M1157 1347q0 -46 -26 -84l-742 -1048h751v-215h-1100v106q0 20 7 38.5t18 34.5l744 1053h-722v214h1070v-99z"/>
<glyph glyph-name="bracketleft" horiz-adv-x="627" unicode="[" d="M371 1387v-1535h139q29 0 47 -18.5t18 -44.5v-97h-410v1855h410v-97q0 -26 -18 -44.5t-47 -18.5h-139z"/>
<glyph glyph-name="backslash" horiz-adv-x="932" unicode="\" d="M58 1486h106q44 0 77 -22.5t49 -64.5l584 -1494h-105q-39 0 -76.5 23t-54.5 69z"/>
<glyph glyph-name="bracketright" horiz-adv-x="627" unicode="]" d="M462 -308h-410v97q0 26 18 44.5t47 18.5h139v1535h-139q-29 0 -47 18.5t-18 44.5v97h410v-1855z"/>
<glyph glyph-name="asciicircum" d="M1061 681h-181q-23 0 -38 12t-24 30l-190 384q-32 65 -49 118q-8 -29 -19.5 -57.5t-25.5 -60.5l-180 -384q-8 -18 -24 -30t-41 -12h-190l397 765h160z" unicode="^"/>
<glyph glyph-name="underscore" horiz-adv-x="933" unicode="_" d="M860 -134v-160h-788v160h788z"/>
<glyph glyph-name="grave" horiz-adv-x="800" unicode="`" d="M311 1462q41 0 61 -13.5t34 -39.5l143 -243h-141q-28 0 -45.5 7.5t-35.5 27.5l-247 261h231z"/>
<glyph glyph-name="a" horiz-adv-x="1015" unicode="a" d="M98 883q177 162 426 162q90 0 161 -29.5t120 -82t74.5 -125.5t25.5 -160v-648h-112q-35 0 -54 10.5t-30 42.5l-22 74q-39 -35 -76 -61.5t-77 -44.5t-85.5 -27.5t-100.5 -9.5q-65 0 -120 17.5t-95 52.5t-62 87t-22 121q0 39 13 77.5t42.5 73.5t76.5 66t115.5 54 t159.5 37.5t208 17.5v60q0 103 -44 152.5t-127 49.5q-60 0 -99.5 -14t-69.5 -31.5t-54.5 -31.5t-54.5 -14q-26 0 -44 13.5t-29 31.5zM664 438q-107 -5 -180 -18.5t-117 -34.5t-63 -49t-19 -61q0 -65 38.5 -93t100.5 -28q76 0 131.5 27.5t108.5 83.5v173z"/>
<glyph glyph-name="b" horiz-adv-x="1135" unicode="b" d="M369 900q62 65 137.5 103.5t172.5 38.5q89 0 160.5 -35t122 -100.5t77.5 -158.5t27 -209q0 -125 -31 -227t-88.5 -174.5t-138.5 -112.5t-180 -40q-48 0 -87 9.5t-72 26.5t-60.5 41.5t-52.5 54.5l-11 -69q-6 -26 -20.5 -37t-39.5 -11h-163v1486h247v-586zM369 266 q42 -51 91.5 -72t104.5 -21q57 0 102.5 20.5t77.5 64t49 111t17 161.5q0 169 -56 244.5t-161 75.5q-71 0 -124 -32.5t-101 -91.5v-460z"/>
<glyph glyph-name="c" horiz-adv-x="964" unicode="c" d="M857 809q-11 -14 -21.5 -22t-30.5 -8q-19 0 -37 11.5t-43 26t-59.5 26t-85.5 11.5q-65 0 -114 -23.5t-81.5 -67.5t-48.5 -106.5t-16 -141.5q0 -82 17.5 -146t50.5 -107.5t80 -66t106 -22.5t95.5 14.5t61.5 32t43.5 32t41.5 14.5q30 0 45 -23l71 -90q-41 -48 -89 -80.5 t-99.5 -52t-106 -27.5t-108.5 -8q-95 0 -179 35.5t-147 103.5t-99.5 166.5t-36.5 224.5q0 113 32.5 209.5t95.5 167t156 110.5t214 40q115 0 201.5 -37t155.5 -106z"/>
<glyph glyph-name="d" horiz-adv-x="1135" unicode="d" d="M1013 1486v-1486h-151q-49 0 -62 45l-21 99q-62 -71 -142.5 -115t-187.5 -44q-84 0 -154 35t-120.5 101.5t-78 164.5t-27.5 224q0 114 31 212t89 170t139 112.5t182 40.5q86 0 147 -27t109 -73v541h247zM766 764q-42 51 -91.5 72t-106.5 21q-56 0 -101 -21t-77 -63.5 t-49 -108t-17 -154.5q0 -90 14.5 -152.5t41.5 -102t66 -57t87 -17.5q77 0 131 32t102 91v460z"/>
<glyph glyph-name="e" horiz-adv-x="1068" unicode="e" d="M312 482q6 -79 28 -136.5t58 -95t85.5 -56t109.5 -18.5t103.5 14t76 31t57 31t47.5 14q31 0 46 -23l71 -90q-41 -48 -92 -80.5t-106.5 -52t-113 -27.5t-111.5 -8q-107 0 -199 35.5t-160 105t-107 172t-39 237.5q0 105 34 197.5t97.5 161t155 108.5t206.5 40q97 0 179 -31 t141 -90.5t92.5 -146t33.5 -197.5q0 -56 -12 -75.5t-46 -19.5h-635zM783 631q0 48 -13.5 90.5t-40.5 74.5t-68.5 50.5t-96.5 18.5q-107 0 -168.5 -61t-78.5 -173h466z"/>
<glyph glyph-name="f" horiz-adv-x="717" unicode="f" d="M194 0v840l-89 14q-29 6 -46.5 20.5t-17.5 41.5v101h153v76q0 88 26.5 158t76 119t120.5 75t160 26q71 0 132 -19l-5 -124q-1 -14 -8 -22.5t-18.5 -13t-26.5 -6t-32 -1.5q-44 0 -78.5 -9.5t-58.5 -33t-36.5 -62t-12.5 -95.5v-68h267v-176h-259v-841h-247z"/>
<glyph glyph-name="g" horiz-adv-x="1056" unicode="g" d="M1022 991v-92q0 -44 -53 -54l-92 -17q21 -53 21 -116q0 -76 -30.5 -137.5t-84.5 -104.5t-127.5 -66.5t-158.5 -23.5q-30 0 -58 3t-55 8q-48 -29 -48 -65q0 -31 28.5 -45.5t75.5 -20.5t107 -7.5t123 -6.5t123 -17.5t107 -39.5t75.5 -73.5t28.5 -119.5q0 -68 -33.5 -132 t-97 -114t-156 -80.5t-210.5 -30.5q-116 0 -202 22.5t-143 60t-85 86.5t-28 102q0 72 43.5 120.5t119.5 77.5q-41 21 -65 56t-24 92q0 23 8.5 47.5t25 48.5t41.5 45.5t59 38.5q-78 42 -122.5 112t-44.5 164q0 76 30.5 137.5t85 105t129 66.5t162.5 23q66 0 124 -13.5 t106 -39.5h295zM776 -46q0 30 -18 49t-49 29.5t-72.5 15.5t-88 7.5t-96 4.5t-96.5 8q-41 -23 -66.5 -54t-25.5 -72q0 -27 13.5 -50.5t43 -40.5t76.5 -26.5t115 -9.5q69 0 119 10.5t82.5 29t47.5 44t15 55.5zM497 538q46 0 80 12.5t56.5 34.5t34 53t11.5 68q0 76 -45.5 120.5 t-136.5 44.5t-136.5 -44.5t-45.5 -120.5q0 -36 11.5 -67t34 -53.5t57 -35t79.5 -12.5z"/>
<glyph glyph-name="h" horiz-adv-x="1128" unicode="h" d="M369 916q60 56 132 91t169 35q84 0 149 -28.5t108.5 -80t66 -123t22.5 -157.5v-653h-247v653q0 94 -43 145.5t-131 51.5q-64 0 -120 -29t-106 -79v-742h-247v1486h247v-570z"/>
<glyph glyph-name="i" horiz-adv-x="508" unicode="i" d="M412 1325q0 -32 -13 -60t-34.5 -49t-50.5 -33.5t-62 -12.5q-32 0 -60.5 12.5t-49.5 33.5t-33.5 49t-12.5 60q0 33 12.5 62t33.5 50t49.5 33.5t60.5 12.5q33 0 62 -12.5t50.5 -33.5t34.5 -50t13 -62zM378 1026v-1026h-248v1026h248z"/>
<glyph glyph-name="j" horiz-adv-x="508" unicode="j" d="M412 1325q0 -32 -13 -60t-34.5 -49t-51 -33.5t-62.5 -12.5q-32 0 -60 12.5t-49 33.5t-33.5 49t-12.5 60q0 33 12.5 62t33.5 50t49 33.5t60 12.5q33 0 62.5 -12.5t51 -33.5t34.5 -50t13 -62zM378 1026v-1061q0 -67 -17.5 -126t-56 -103.5t-101 -70t-152.5 -25.5 q-35 0 -65 4.5t-62 14.5l9 133q3 20 16 25.5t50 5.5t62.5 7.5t40.5 24t21.5 43.5t6.5 67v1061h248z"/>
<glyph glyph-name="k" horiz-adv-x="1069" unicode="k" d="M369 1486v-851h46q25 0 39.5 6.5t29.5 26.5l255 315q16 21 35.5 32t50.5 11h226l-319 -381q-34 -45 -74 -69q21 -15 37.5 -35t31.5 -43l342 -498h-223q-29 0 -50 9.5t-35 34.5l-262 389q-14 23 -29 30t-45 7h-56v-470h-247v1486h247z"/>
<glyph glyph-name="l" horiz-adv-x="497" unicode="l" d="M372 1486v-1486h-247v1486h247z"/>
<glyph glyph-name="m" horiz-adv-x="1675" unicode="m" d="M122 0v1026h151q48 0 63 -45l16 -76q27 30 56.5 55t63 43t72 28.5t84.5 10.5q97 0 159.5 -52.5t93.5 -139.5q24 51 60 87.5t79 59.5t91.5 34t97.5 11q85 0 151 -26t111 -76t68.5 -122t23.5 -165v-653h-247v653q0 98 -43 147.5t-126 49.5q-38 0 -70.5 -13t-57 -37.5 t-38.5 -61.5t-14 -85v-653h-248v653q0 103 -41.5 150t-121.5 47q-54 0 -100.5 -26.5t-86.5 -72.5v-751h-247z"/>
<glyph glyph-name="n" horiz-adv-x="1128" unicode="n" d="M353 900q31 31 65.5 57.5t73 45t82.5 29t96 10.5q84 0 149 -28.5t108.5 -80t66 -123t22.5 -157.5v-653h-247v653q0 94 -43 145.5t-131 51.5q-64 0 -120 -29t-106 -79v-742h-247v1026h151q48 0 63 -45z"/>
<glyph glyph-name="o" horiz-adv-x="1149" unicode="o" d="M576 175q128 0 189.5 86t61.5 252t-61.5 253t-189.5 87q-130 0 -192.5 -87.5t-62.5 -252.5t62.5 -251.5t192.5 -86.5zM576 1042q114 0 207.5 -37t160 -105t102.5 -166t36 -219q0 -122 -36 -220t-102.5 -167t-160 -106t-207.5 -37q-115 0 -209 37t-160.5 106t-103 167 t-36.5 220q0 121 36.5 219t103 166t160.5 105t209 37z"/>
<glyph glyph-name="p" horiz-adv-x="1136" unicode="p" d="M356 886q63 71 143 115t188 44q84 0 153.5 -35t120 -101.5t78 -164t27.5 -223.5q0 -115 -31 -213t-88.5 -170t-139 -112.5t-182.5 -40.5q-86 0 -147 26.5t-109 73.5v-420h-247v1361h151q48 0 63 -45zM369 266q42 -51 91.5 -72t107.5 -21q56 0 101 21t76.5 64t48.5 108.5 t17 154.5q0 90 -14.5 152.5t-41.5 101.5t-65.5 57t-87.5 18q-77 0 -131 -32.5t-102 -91.5v-460z"/>
<glyph glyph-name="q" horiz-adv-x="1135" unicode="q" d="M1013 1026v-1361h-247v465q-61 -65 -138 -105t-179 -40q-84 0 -154 35t-120.5 101.5t-78 164.5t-27.5 224q0 114 31 212t89 170t139 112.5t182 40.5q96 0 161 -33t116 -89l13 58q13 45 62 45h151zM766 764q-41 51 -91 72t-107 21q-56 0 -101 -21t-77 -63.5t-49 -108 t-17 -154.5q0 -90 14.5 -152.5t41.5 -102t66 -57t87 -17.5q77 0 131 32t102 91v460z"/>
<glyph glyph-name="r" horiz-adv-x="746" unicode="r" d="M355 848q48 92 114 144.5t156 52.5q71 0 114 -31l-16 -185q-5 -18 -14.5 -25.5t-25.5 -7.5q-15 0 -44.5 5t-57.5 5q-41 0 -73 -12t-57.5 -34.5t-45 -54.5t-36.5 -73v-632h-247v1026h145q38 0 53 -13.5t20 -48.5z"/>
<glyph glyph-name="s" horiz-adv-x="879" unicode="s" d="M748 826q-10 -16 -21 -22.5t-28 -6.5q-18 0 -38.5 10t-47.5 22.5t-61.5 22.5t-81.5 10q-73 0 -114.5 -31t-41.5 -81q0 -33 21.5 -55.5t57 -39.5t80.5 -30.5t91.5 -29.5t91.5 -36.5t80.5 -52t57 -75.5t21.5 -106q0 -74 -26.5 -136.5t-78.5 -108t-128.5 -71t-176.5 -25.5 q-53 0 -103.5 9.5t-97 26.5t-86 40t-69.5 50l57 94q11 17 26 26t38 9t43.5 -13t47.5 -28t63.5 -28t92.5 -13q44 0 75.5 10.5t52 27.5t30 39.5t9.5 46.5q0 36 -21.5 59t-57 40t-81 30.5t-93 29.5t-93 37.5t-81 54.5t-57 81t-21.5 116q0 63 25 120t73.5 99.5t121 68 t167.5 25.5q106 0 193 -35t145 -92z"/>
<glyph glyph-name="t" horiz-adv-x="744" unicode="t" d="M464 -16q-134 0 -205.5 75.5t-71.5 208.5v573h-105q-20 0 -34 13t-14 39v98l165 27l52 280q5 20 19 31t36 11h128v-323h274v-176h-274v-556q0 -48 23.5 -75t64.5 -27q23 0 38.5 5.5t27 11.5t20.5 11.5t18 5.5q11 0 18 -5.5t15 -16.5l74 -120q-54 -45 -124 -68t-145 -23z "/>
<glyph glyph-name="u" horiz-adv-x="1128" unicode="u" d="M1006 1026v-1026h-151q-49 0 -62 45l-17 82q-63 -64 -139 -103.5t-179 -39.5q-84 0 -148.5 28.5t-108.5 80.5t-66.5 123.5t-22.5 157.5v652h247v-652q0 -94 43.5 -145.5t130.5 -51.5q64 0 120 28.5t106 78.5v742h247z"/>
<glyph glyph-name="v" horiz-adv-x="1056" unicode="v" d="M1047 1026l-407 -1026h-224l-407 1026h204q28 0 46.5 -13t24.5 -33l198 -548q16 -48 28 -94t21 -92q10 46 22 92t29 94l202 548q7 20 25 33t43 13h195z"/>
<glyph glyph-name="w" horiz-adv-x="1605" unicode="w" d="M1587 1026l-326 -1026h-198q-34 0 -47 44l-184 593q-9 30 -16.5 59.5t-12.5 59.5q-6 -30 -13.5 -60.5t-16.5 -60.5l-187 -591q-12 -44 -53 -44h-190l-325 1026h197q27 0 46 -13t25 -33l147 -548q11 -45 19.5 -88t14.5 -86q11 43 23.5 86t26.5 88l170 550q6 20 23.5 33 t42.5 13h109q26 0 44.5 -13t24.5 -33l165 -550q13 -45 24.5 -88.5t22.5 -86.5q13 85 37 175l151 548q7 20 25 33t43 13h188z"/>
<glyph glyph-name="x" horiz-adv-x="1044" unicode="x" d="M1038 0h-238q-27 0 -43.5 14t-27.5 32l-217 357q-5 -17 -11.5 -32t-14.5 -28l-192 -297q-11 -17 -27 -31.5t-40 -14.5h-221l352 529l-338 497h238q27 0 40 -7.5t23 -24.5l215 -342q11 34 31 67l173 270q22 37 57 37h227l-337 -486z"/>
<glyph glyph-name="y" horiz-adv-x="1055" unicode="y" d="M1054 1026l-559 -1308q-11 -26 -28.5 -39.5t-53.5 -13.5h-184l192 412l-415 949h217q29 0 45.5 -14t24.5 -32l218 -532q11 -27 18.5 -54t14.5 -55q9 28 18 55.5t20 54.5l206 531q8 20 26.5 33t41.5 13h198z"/>
<glyph glyph-name="z" horiz-adv-x="919" unicode="z" d="M859 924q0 -26 -9 -51t-24 -41l-487 -642h505v-190h-792v103q0 17 8 40.5t24 44.5l492 649h-495v189h778v-102z"/>
<glyph glyph-name="braceleft" horiz-adv-x="612" unicode="{" d="M493 1387q-70 0 -107 -44t-37 -121q0 -55 6 -105.5t12.5 -98t12.5 -93.5t6 -93q0 -37 -10.5 -71t-30.5 -62t-48.5 -49t-64.5 -31q36 -11 64.5 -31.5t48.5 -48.5t30.5 -62t10.5 -71q0 -47 -6 -93t-12.5 -93.5t-12.5 -98t-6 -105.5q0 -76 37 -120t107 -44h9q7 0 16 -3 t17.5 -9t14 -16t5.5 -23v-109h-53q-94 0 -163.5 24.5t-115 69t-67.5 107t-22 138.5q0 49 6.5 96.5t15 94.5t15 94t6.5 94q0 61 -28.5 99.5t-91.5 38.5v143q63 0 91.5 38.5t28.5 99.5q0 47 -6.5 93.5t-15 93.5t-15 94.5t-6.5 96.5q0 76 22 138.5t67.5 107.5t115 69.5 t163.5 24.5h53v-110q0 -13 -5.5 -22.5t-14 -15.5t-17.5 -9t-16 -3h-9z"/>
<glyph glyph-name="bar" horiz-adv-x="522" unicode="|" d="M165 1547h192v-1891h-192v1891z"/>
<glyph glyph-name="braceright" horiz-adv-x="612" unicode="}" d="M555 548q-63 0 -91.5 -38.5t-28.5 -99.5q0 -47 6.5 -94t15 -94t15 -94.5t6.5 -96.5q0 -76 -22 -138.5t-67.5 -107t-115 -69t-163.5 -24.5h-53v109q0 13 5.5 23t14 16t17.5 9t16 3h9q70 0 106.5 44t36.5 120q0 55 -5.5 105.5t-12.5 98t-12.5 93.5t-5.5 93q0 37 10.5 71 t30.5 62t48.5 48.5t64.5 31.5q-36 10 -64.5 31t-48.5 49t-30.5 62t-10.5 71q0 47 5.5 93t12.5 93.5t12.5 98t5.5 105.5q0 77 -36.5 121t-106.5 44h-9q-7 0 -16 3t-17.5 9t-14 15.5t-5.5 22.5v110h53q94 0 163.5 -24.5t115 -69.5t67.5 -107.5t22 -138.5q0 -49 -6.5 -96.5 t-15 -94.5t-15 -93.5t-6.5 -93.5q0 -61 28.5 -99.5t91.5 -38.5v-143z"/>
<glyph glyph-name="asciitilde" d="M748 648q56 0 87 36t31 101h199q0 -77 -20.5 -139.5t-59 -107t-94.5 -68.5t-128 -24q-53 0 -101.5 14t-92 30.5t-81.5 30.5t-70 14q-56 0 -87 -36t-31 -101h-199q0 77 20.5 139.5t59 107t94.5 68.5t128 24q53 0 101.5 -14t92 -30.5t81.5 -30.5t70 -14z" unicode="~"/>
<glyph glyph-name="exclamdown" horiz-adv-x="540" unicode="¡" d="M117 892q0 32 11.5 59.5t31.5 47.5t48 31.5t60 11.5q31 0 59 -11.5t48.5 -31.5t32.5 -47.5t12 -59.5t-12 -59.5t-32.5 -47.5t-48.5 -32t-59 -12q-32 0 -60 12t-48 32t-31.5 47.5t-11.5 59.5zM155 -335v533q0 91 9 178.5t24 185.5h167q15 -98 23.5 -185.5t8.5 -178.5v-533 h-232z"/>
<glyph glyph-name="cent" d="M1049 151q-71 -80 -165.5 -118t-196.5 -45l-13 -147q-2 -24 -20 -43.5t-46 -19.5h-91l18 213q-89 13 -165.5 54t-132.5 107.5t-87.5 157t-31.5 203.5q0 109 33.5 203.5t98 164.5t159 112t216.5 47l13 157q3 23 20.5 42.5t46.5 19.5h91l-20 -229q79 -14 143 -47.5 t118 -83.5l-63 -87q-10 -14 -20.5 -21t-29.5 -7q-14 0 -29 6.5t-34.5 16.5t-44 20t-56.5 18l-58 -673q53 5 88.5 19.5t61 29.5t45 27t39.5 12q29 0 45 -21zM609 853q-126 -17 -186.5 -105t-60.5 -235q0 -134 49.5 -216.5t140.5 -111.5z" unicode="¢"/>
<glyph glyph-name="sterling" d="M37 679q0 34 20.5 58.5t62.5 24.5h107v236q0 94 28.5 178.5t85.5 148t143 100.5t202 37q79 0 142.5 -20.5t113 -55.5t86 -82.5t63.5 -102.5l-99 -63q-32 -16 -60 -16q-3 0 -20.5 1t-43.5 31q-19 22 -37.5 40.5t-39.5 32t-46.5 20.5t-58.5 7q-103 0 -154 -67.5t-51 -187.5 v-237h409v-98q0 -24 -20 -44t-50 -20h-339v-194q0 -66 -24.5 -117.5t-66.5 -95.5q36 8 72 12.5t74 4.5h586v-104q0 -18 -7.5 -37t-21.5 -34.5t-34 -25t-44 -9.5h-958v155q33 8 64 22.5t54.5 37t37.5 53t14 71.5v261h-190v79z" unicode="£"/>
<glyph glyph-name="currency" d="M925 209l-151 151q-42 -26 -91 -40.5t-103 -14.5q-52 0 -99.5 13.5t-89.5 37.5l-153 -152l-123 124l151 150q-26 43 -40.5 92t-14.5 103q0 53 13.5 100.5t38.5 89.5l-153 152l125 122l150 -150q43 26 92 40.5t103 14.5q53 0 100.5 -13.5t89.5 -38.5l152 152l123 -123 l-151 -151q26 -42 40.5 -91.5t14.5 -103.5q0 -52 -13.5 -99.5t-38.5 -89.5l153 -152zM393 673q0 -38 14.5 -72.5t40 -60t59.5 -40.5t73 -15t73.5 15t60 40.5t40.5 60t15 72.5q0 40 -15 74.5t-40.5 60t-60 40.5t-73.5 15t-73 -15t-59.5 -40.5t-40 -60t-14.5 -74.5z" unicode="¤"/>
<glyph glyph-name="yen" d="M748 633h275v-138h-319v-95h319v-137h-319v-263h-248v263h-319v137h319v95h-319v138h275l-398 813h206q35 0 57.5 -16t33.5 -44l218 -488q18 -45 31 -83t22 -75q8 38 20 75.5t30 82.5l217 488q11 23 33 41.5t56 18.5h208z" unicode="¥"/>
<glyph glyph-name="brokenbar" horiz-adv-x="528" unicode="¦" d="M168 473h192v-808h-192v808zM168 1547h192v-809h-192v809z"/>
<glyph glyph-name="section" horiz-adv-x="1007" unicode="§" d="M820 1245q-17 -30 -49 -30q-18 0 -38.5 10t-47.5 22.5t-61.5 22.5t-81.5 10q-42 0 -74 -9.5t-53.5 -26t-33 -38.5t-11.5 -47q0 -32 23.5 -56t62.5 -45.5t88.5 -41.5t101.5 -42.5t101.5 -49.5t88.5 -62t62.5 -81t23.5 -106q0 -81 -37.5 -146.5t-120.5 -105.5 q45 -37 73.5 -85.5t28.5 -117.5q0 -74 -26.5 -136.5t-78.5 -108t-128.5 -71t-176.5 -25.5q-53 0 -103.5 9.5t-97 26.5t-86 40t-69.5 50l58 94q10 17 25 26t38 9t43.5 -13t48.5 -28t67 -28t98 -13q82 0 127.5 34t45.5 94q0 40 -24 69t-64 51.5t-90.5 41t-103 39.5t-103 46.5 t-90.5 60.5t-64 83t-24 114q0 80 41.5 142t126.5 99q-46 39 -75 92.5t-29 129.5q0 63 24.5 119.5t73.5 99.5t121 68.5t167 25.5q106 0 193.5 -35t144.5 -92zM307 725q0 -42 29 -72.5t75.5 -55t104.5 -47t115 -48.5q40 20 58 50.5t18 66.5q0 44 -28 74.5t-73 55.5t-101.5 47 t-112.5 48q-45 -23 -65 -52t-20 -67z"/>
<glyph glyph-name="dieresis" horiz-adv-x="800" unicode="¨" d="M740 1292q0 -28 -11 -52.5t-29.5 -42.5t-44 -28.5t-54.5 -10.5q-28 0 -53 10.5t-43.5 28.5t-29.5 42.5t-11 52.5q0 29 11 54.5t29.5 44.5t43.5 30t53 11q29 0 54.5 -11t44 -30t29.5 -44.5t11 -54.5zM336 1292q0 -28 -11 -52.5t-30.5 -42.5t-45 -28.5t-54.5 -10.5 q-27 0 -51.5 10.5t-43 28.5t-29.5 42.5t-11 52.5q0 29 11 54.5t29.5 44.5t43 30t51.5 11q29 0 54.5 -11t45 -30t30.5 -44.5t11 -54.5z"/>
<glyph glyph-name="copyright" horiz-adv-x="1648" unicode="©" d="M221 723q0 -130 46.5 -243t127.5 -196.5t191 -131.5t237 -48q85 0 163 22t145.5 62t123 96t94.5 125t60.5 148t21.5 166t-21.5 167t-60.5 149.5t-94.5 126t-123 97t-145.5 62.5t-163 22t-162 -22t-144 -62.5t-121.5 -97t-93.5 -126t-60 -149.5t-21 -167zM86 723 q0 102 26.5 196.5t74.5 176.5t115.5 149.5t149 115.5t175.5 74.5t196 26.5t196.5 -26.5t176.5 -74.5t149.5 -115.5t115.5 -149.5t74.5 -176.5t26.5 -196.5q0 -101 -26.5 -195.5t-74.5 -176t-115.5 -149t-149.5 -115.5t-176.5 -74.5t-196.5 -26.5t-196 26.5t-175.5 74.5 t-149 115.5t-115.5 149t-74.5 175.5t-26.5 196zM1050 512q20 0 35 -17l82 -87q-56 -71 -141.5 -108.5t-200.5 -37.5q-100 0 -181 35.5t-138 98t-88 147t-31 183.5q0 102 35 187t97 146.5t145.5 95.5t181.5 34q111 0 191 -37.5t134 -95.5l-65 -89q-6 -8 -16.5 -16t-26.5 -8 q-17 0 -32 10t-36.5 22t-53.5 22t-83 10q-60 0 -106.5 -19.5t-79 -56t-49.5 -88.5t-17 -117q0 -68 17.5 -120t48 -87.5t73 -54t93.5 -18.5q49 0 80.5 8t53 19t39 22t39.5 17z"/>
<glyph glyph-name="ordfeminine" horiz-adv-x="734" unicode="ª" d="M111 1368q56 51 123 74.5t145 23.5q57 0 102 -18t76.5 -50.5t48 -76.5t16.5 -96v-384h-83q-24 0 -36.5 7t-23.5 29l-12 37q-24 -20 -46 -35.5t-45 -25.5t-49.5 -15t-59.5 -5q-42 0 -76 11t-58.5 32.5t-38 53t-13.5 72.5q0 33 17 67.5t59 62.5t113 47t179 21v25 q0 54 -23.5 76.5t-68.5 22.5q-34 0 -56 -7t-39 -16t-32 -16t-36 -7q-19 0 -31.5 10.5t-20.5 22.5zM449 1091q-59 -2 -97 -8.5t-60.5 -17t-31.5 -24.5t-9 -30q0 -32 18.5 -44.5t53.5 -12.5q38 0 67.5 13.5t58.5 42.5v81z"/>
<glyph glyph-name="guillemotleft" horiz-adv-x="911" unicode="«" d="M452 260q13 -23 13 -44q0 -6 -1 -12q-5 -26 -37 -40l-81 -38l-256 396v32l256 396l81 -38q32 -14 37 -40q1 -6 1 -13q0 -21 -13 -44l-138 -235q-14 -26 -32 -42q18 -16 32 -42zM781 260q13 -23 13 -44q0 -6 -1 -12q-5 -26 -37 -40l-81 -38l-256 396v32l256 396l81 -38 q32 -14 37 -40q1 -6 1 -13q0 -21 -13 -44l-138 -235q-14 -26 -32 -42q18 -16 32 -42z"/>
<glyph glyph-name="logicalnot" d="M1019 297h-210v283h-677v183h887v-466z" unicode="¬"/>
<glyph glyph-name="registered" horiz-adv-x="1648" unicode="®" d="M823 1462q102 0 196.5 -26.5t176.5 -74.5t149.5 -115.5t115.5 -149.5t74.5 -176.5t26.5 -196.5q0 -101 -26.5 -195.5t-74.5 -176t-115.5 -149t-149.5 -115.5t-176.5 -74.5t-196.5 -26.5t-196 26.5t-175.5 74.5t-149 115.5t-115.5 149t-74.5 175.5t-26.5 196t26.5 196.5 t74.5 176.5t115.5 149.5t149 115.5t175.5 74.5t196 26.5zM823 104q85 0 163 22t145.5 62t123 96t94.5 125t60.5 148t21.5 166t-21.5 167t-60.5 149.5t-94.5 126t-123 97t-145.5 62.5t-163 22t-162 -22t-144 -62.5t-121.5 -97t-93.5 -126t-60 -149.5t-21 -167 q0 -130 46.5 -243t127.5 -196.5t191 -131.5t237 -48zM819 1174q187 0 274 -67t87 -192q0 -89 -46 -155.5t-143 -96.5q22 -14 37.5 -33.5t29.5 -45.5l181 -307h-205q-45 0 -63 33l-144 263q-10 14 -22.5 21.5t-37.5 7.5h-55v-325h-215v897h322zM800 755q52 0 84.5 8.5 t51 25.5t25.5 42t7 57q0 31 -6 54.5t-22.5 39t-45.5 23t-75 7.5h-107v-257h88z"/>
<glyph glyph-name="degree" horiz-adv-x="831" unicode="°" d="M241 1121q0 -37 13 -69t36.5 -55.5t55 -37t69.5 -13.5q37 0 68.5 13.5t55 37t36.5 55.5t13 69q0 38 -13 70.5t-36.5 56.5t-55 38t-68.5 14q-38 0 -69.5 -14t-55 -38t-36.5 -56.5t-13 -70.5zM69 1123q0 71 26.5 133.5t73 108.5t110 72.5t136.5 26.5t136.5 -26.5t110 -72.5 t73.5 -108.5t27 -133.5q0 -69 -27 -131t-73.5 -108.5t-110 -73.5t-136.5 -27t-136.5 27t-110 73.5t-73 108.5t-26.5 131z"/>
<glyph glyph-name="plusminus" d="M1068 887v-184h-389v-341h-200v341h-387v184h387v354h200v-354h389zM92 263h976v-183h-976v183z" unicode="±"/>
<glyph glyph-name="uni00B2" horiz-adv-x="668" unicode="²" d="M542 1060q28 0 43.5 -15t15.5 -40v-105h-541v57q0 17 6.5 36t22.5 35l209 206q22 22 42 46.5t34 49t22.5 49t8.5 47.5q0 36 -19.5 58.5t-54.5 22.5q-33 0 -53 -16.5t-33 -47.5q-14 -22 -31 -31t-52 -3l-99 15q9 57 32.5 99.5t59.5 70.5t83 41.5t103 13.5q58 0 103.5 -17 t77 -46t47.5 -68.5t16 -85.5q0 -41 -12.5 -75t-33 -65t-47.5 -60t-56 -59l-128 -130q28 8 55 12.5t50 4.5h129z"/>
<glyph glyph-name="uni00B3" horiz-adv-x="668" unicode="³" d="M75 1424q8 57 31.5 99.5t58.5 70.5t80 41.5t96 13.5q57 0 101.5 -16.5t75 -43.5t46.5 -61.5t16 -71.5q0 -63 -25.5 -106.5t-82.5 -67.5q60 -20 91 -56.5t31 -95.5q0 -62 -23 -106.5t-60 -74t-84 -43.5t-96 -14q-54 0 -97 10.5t-76.5 34t-58.5 62t-43 94.5l76 31 q30 12 55.5 6.5t36.5 -26.5q6 -11 14 -23t19.5 -21.5t27.5 -15.5t37 -6q45 0 69 25t24 60q0 27 -7 45t-23.5 29t-44.5 15.5t-70 4.5v116q42 0 69 6.5t42.5 18t22 28.5t6.5 38q0 37 -19.5 58.5t-58.5 21.5q-35 0 -55 -16t-31 -43q-7 -13 -13.5 -21t-15.5 -12.5t-21 -5 t-29 2.5z"/>
<glyph glyph-name="acute" horiz-adv-x="800" unicode="´" d="M746 1462l-247 -261q-19 -20 -36.5 -27.5t-45.5 -7.5h-148l142 243q15 26 35 39.5t60 13.5h240z"/>
<glyph glyph-name="uni00B5" horiz-adv-x="1320" unicode="µ" d="M1252 171v-98q0 -16 -10.5 -31t-30.5 -26.5t-49 -18.5t-65 -7q-42 0 -81 12t-71.5 37t-57.5 63t-38 89q-54 -85 -122.5 -130.5t-156.5 -45.5q-118 0 -191 64q10 -43 13.5 -89t3.5 -85v-240h-123q-52 0 -80 26.5t-28 76.5v1258h247v-606q0 -93 43.5 -149t129.5 -56 q81 0 136.5 44t90.5 122v645h247v-723q0 -68 32.5 -100t87.5 -32h73z"/>
<glyph glyph-name="paragraph" horiz-adv-x="1474" unicode="¶" d="M1402 1239h-214v-1448h-216v1448h-235v-1448h-216v839q-104 0 -188 32.5t-143.5 88t-92 129.5t-32.5 157q0 91 32.5 166t92 129t143.5 84t188 30h881v-207z"/>
<glyph glyph-name="cedilla" horiz-adv-x="800" unicode="¸" d="M450 -61q94 -22 132 -59.5t38 -89.5q0 -34 -17.5 -61t-50 -46t-77.5 -29t-99 -10q-41 0 -76.5 5.5t-70.5 16.5l23 77q6 23 29 23q14 0 30.5 -7.5t48.5 -7.5q33 0 49.5 12.5t16.5 30.5q0 29 -36 41.5t-111 23.5l60 176h138z"/>
<glyph glyph-name="uni00B9" horiz-adv-x="668" unicode="¹" d="M576 1014v-114h-431v114h139v360l5 51l-77 -61q-12 -9 -24.5 -11t-23 0.5t-18.5 7.5t-12 11l-55 75l233 194h149v-627h115z"/>
<glyph glyph-name="ordmasculine" horiz-adv-x="801" unicode="º" d="M402 973q67 0 99.5 42.5t32.5 131.5t-32.5 131t-99.5 42q-70 0 -102.5 -42t-32.5 -131t32.5 -131.5t102.5 -42.5zM402 1464q73 0 133 -22t103 -62.5t66.5 -99t23.5 -131.5q0 -74 -23.5 -133.5t-66.5 -101t-103 -63.5t-133 -22t-133.5 22t-104 63.5t-67.5 101t-24 133.5 q0 73 24 131.5t67.5 99t104 62.5t133.5 22z"/>
<glyph glyph-name="guillemotright" horiz-adv-x="911" unicode="»" d="M492 554v-32l-256 -396l-81 38q-31 14 -37 40q-1 6 -2 13q0 20 13 43l139 236q14 26 32 42q-18 16 -32 42l-139 235q-13 23 -13 43q0 8 2 14q6 26 37 40l81 38zM821 554v-32l-256 -396l-81 38q-31 14 -37 40q-1 6 -2 13q0 20 13 43l139 236q14 26 32 42q-18 16 -32 42 l-139 235q-13 23 -13 43q0 8 2 14q6 26 37 40l81 38z"/>
<glyph glyph-name="onequarter" horiz-adv-x="1486" unicode="¼" d="M452 71q-26 -41 -55.5 -56t-68.5 -15h-105l834 1365q24 38 54.5 59.5t74.5 21.5h106zM570 820v-114h-431v114h139v360l5 51l-77 -61q-12 -9 -24.5 -11t-23 0.5t-18.5 7.5t-12 11l-55 75l233 194h149v-627h115zM1411 282v-88q0 -13 -9 -23t-24 -10h-60v-161h-148v161h-290 q-23 0 -36.5 10.5t-17.5 26.5l-14 76l335 467h171v-459h93zM1170 282v168q0 24 1.5 52t5.5 58l-202 -278h195z"/>
<glyph glyph-name="onehalf" horiz-adv-x="1471" unicode="½" d="M413 71q-26 -41 -55.5 -56t-68.5 -15h-105l834 1365q24 38 54.5 59.5t74.5 21.5h106zM572 820v-114h-431v114h139v360l5 51l-77 -61q-12 -9 -24.5 -11t-23 0.5t-18.5 7.5t-12 11l-55 75l233 194h149v-627h115zM1328 160q28 0 43.5 -15t15.5 -40v-105h-541v57q0 17 6.5 36 t22.5 35l209 206q22 22 42 46.5t34 49t22.5 49t8.5 47.5q0 36 -19.5 58.5t-54.5 22.5q-33 0 -53 -16.5t-33 -47.5q-14 -22 -31 -31t-52 -3l-99 15q9 57 32.5 99.5t59.5 70.5t83 41.5t103 13.5q58 0 103.5 -17t77 -46t47.5 -68.5t16 -85.5q0 -41 -12.5 -75t-33 -65t-47.5 -60 t-56 -59l-128 -130q28 8 55 12.5t50 4.5h129z"/>
<glyph glyph-name="threequarters" horiz-adv-x="1499" unicode="¾" d="M471 71q-26 -41 -55.5 -56t-68.5 -15h-105l834 1365q24 38 54.5 59.5t74.5 21.5h106zM95 1230q8 57 31.5 99.5t58.5 70.5t80 41.5t96 13.5q57 0 101.5 -16.5t75 -43.5t46.5 -61.5t16 -71.5q0 -63 -25.5 -106.5t-82.5 -67.5q60 -20 91 -56.5t31 -95.5q0 -62 -23 -106.5 t-60 -74t-84 -43.5t-96 -14q-54 0 -97 10.5t-76.5 34t-58.5 62t-43 94.5l76 31q30 12 55.5 6.5t36.5 -26.5q6 -11 14 -23t19.5 -21.5t27.5 -15.5t37 -6q45 0 69 25t24 60q0 27 -7 45t-23.5 29t-44.5 15.5t-70 4.5v116q42 0 69 6.5t42.5 18t22 28.5t6.5 38q0 37 -19.5 58.5 t-58.5 21.5q-35 0 -55 -16t-31 -43q-7 -13 -13.5 -21t-15.5 -12.5t-21 -5t-29 2.5zM1425 282v-88q0 -13 -9 -23t-24 -10h-60v-161h-148v161h-290q-23 0 -36.5 10.5t-17.5 26.5l-14 76l335 467h171v-459h93zM1184 282v168q0 24 1.5 52t5.5 58l-202 -278h195z"/>
<glyph glyph-name="questiondown" horiz-adv-x="910" unicode="¿" d="M352 892q0 31 11.5 59t31.5 48t48 32t60 12t59.5 -12t48 -32t32.5 -48t12 -59q0 -32 -12 -59.5t-32.5 -47.5t-48 -31.5t-59.5 -11.5t-60 11.5t-48 31.5t-31.5 47.5t-11.5 59.5zM847 -203q-35 -30 -75 -56.5t-87.5 -47t-102 -32t-118.5 -11.5q-87 0 -158.5 23t-122.5 66 t-79 104.5t-28 139.5q0 76 22 129t55 90.5t72.5 63.5t74.5 49t60 46.5t31 55.5l23 145h169l18 -163q1 -12 1 -23q0 -36 -17 -66t-50 -55.5t-73 -47.5t-74.5 -49t-58 -63t-23.5 -90q0 -36 13.5 -64.5t37.5 -49t57 -31.5t72 -11q57 0 96 13t67 28t47 28t34 13q36 0 52 -31z "/>
<glyph glyph-name="Agrave" horiz-adv-x="1389" unicode="À" d="M1400 0h-208q-35 0 -57 17.5t-33 43.5l-108 295h-599l-108 -295q-8 -23 -31 -42t-57 -19h-210l569 1446h274zM925 546l-176 481q-13 32 -27 76t-28 95q-13 -51 -27 -95.5t-27 -77.5l-175 -479h460zM530 1861q20 0 34.5 -1t26 -5.5t21.5 -12.5t21 -22l218 -271h-179 q-29 0 -45.5 3.5t-36.5 20.5l-319 288h259z"/>
<glyph glyph-name="Aacute" horiz-adv-x="1389" unicode="Á" d="M1400 0h-208q-35 0 -57 17.5t-33 43.5l-108 295h-599l-108 -295q-8 -23 -31 -42t-57 -19h-210l569 1446h274zM925 546l-176 481q-13 32 -27 76t-28 95q-13 -51 -27 -95.5t-27 -77.5l-175 -479h460zM1114 1861l-324 -286q-20 -18 -38 -22t-46 -4h-179l209 271 q10 14 20 22.5t22 12.5t26.5 5t34.5 1h275z"/>
<glyph glyph-name="Acircumflex" horiz-adv-x="1389" unicode="Â" d="M1400 0h-208q-35 0 -57 17.5t-33 43.5l-108 295h-599l-108 -295q-8 -23 -31 -42t-57 -19h-210l569 1446h274zM925 546l-176 481q-13 32 -27 76t-28 95q-13 -51 -27 -95.5t-27 -77.5l-175 -479h460zM1051 1549h-179q-15 0 -36.5 5.5t-44.5 32.5l-82 106q-10 14 -15 22 q-5 -8 -15 -22l-82 -106q-23 -27 -44.5 -32.5t-36.5 -5.5h-171l241 275h224z"/>
<glyph glyph-name="Atilde" horiz-adv-x="1389" unicode="Ã" d="M1400 0h-208q-35 0 -57 17.5t-33 43.5l-108 295h-599l-108 -295q-8 -23 -31 -42t-57 -19h-210l569 1446h274zM925 546l-176 481q-13 32 -27 76t-28 95q-13 -51 -27 -95.5t-27 -77.5l-175 -479h460zM819 1699q22 0 38.5 9t27 22.5t15.5 30t5 32.5h151q0 -50 -13.5 -95.5 t-40 -81t-65 -56.5t-88.5 -21q-51 0 -88.5 16t-68.5 34.5t-56.5 34.5t-52.5 16q-23 0 -39 -9t-26 -23t-15 -31t-5 -33h-153q0 49 14 95.5t40.5 82t65 57t88.5 21.5q51 0 89 -16t68 -34.5t56 -34.5t53 -16z"/>
<glyph glyph-name="Adieresis" horiz-adv-x="1389" unicode="Ä" d="M1400 0h-208q-35 0 -57 17.5t-33 43.5l-108 295h-599l-108 -295q-8 -23 -31 -42t-57 -19h-210l569 1446h274zM925 546l-176 481q-13 32 -27 76t-28 95q-13 -51 -27 -95.5t-27 -77.5l-175 -479h460zM1048 1667q0 -27 -10.5 -51t-29 -42t-43 -28t-51.5 -10q-28 0 -52.5 10 t-42.5 28t-28.5 42t-10.5 51t10.5 51.5t28.5 43t42.5 29.5t52.5 11q27 0 51.5 -11t43 -29.5t29 -43t10.5 -51.5zM608 1667q0 -27 -11 -51t-29.5 -42t-43.5 -28t-53 -10q-26 0 -49.5 10t-41.5 28t-29 42t-11 51t11 51.5t29 43t41.5 29.5t49.5 11q28 0 53 -11t43.5 -29.5 t29.5 -43t11 -51.5z"/>
<glyph glyph-name="Aring" horiz-adv-x="1389" unicode="Å" d="M1400 0h-208q-35 0 -57 17.5t-33 43.5l-108 295h-599l-108 -295q-8 -23 -31 -42t-57 -19h-210l569 1446h274zM925 546l-176 481q-13 32 -27 76t-28 95q-13 -51 -27 -95.5t-27 -77.5l-175 -479h460zM606 1706q0 -39 23 -64t67 -25q40 0 64 25t24 64q0 42 -24 66.5 t-64 24.5q-44 0 -67 -24.5t-23 -66.5zM487 1706q0 43 17 78.5t45.5 60.5t65.5 39t78 14q42 0 80.5 -14t67 -39t45.5 -60.5t17 -78.5q0 -42 -17 -76t-45.5 -59t-67 -38.5t-80.5 -13.5q-41 0 -78 13.5t-65.5 38.5t-45.5 59t-17 76z"/>
<glyph glyph-name="AE" horiz-adv-x="1866" unicode="Æ" d="M1094 1232l49 -401h509v-207h-483l50 -409h569v-215h-797l-44 356h-519l-143 -296q-13 -27 -39 -43.5t-62 -16.5h-204l735 1446h1073v-214h-694zM924 546l-86 700q-16 -51 -33.5 -96t-34.5 -83l-251 -521h405z"/>
<glyph glyph-name="Ccedilla" horiz-adv-x="1323" unicode="Ç" d="M1299 209q-79 -99 -192 -155.5t-267 -67.5l-13 -47q94 -22 132 -59.5t38 -89.5q0 -34 -17.5 -61t-50 -46t-77.5 -29t-99 -10q-41 0 -76.5 5.5t-70.5 16.5l23 77q6 23 29 23q14 0 30.5 -7.5t48.5 -7.5q33 0 49.5 12.5t16.5 30.5q0 29 -36 41.5t-111 23.5l44 128 q-144 13 -259.5 72.5t-196.5 156.5t-124 226t-43 281q0 163 52 298.5t146.5 233.5t225.5 152.5t290 54.5q158 0 280.5 -52t208.5 -136l-90 -125q-8 -12 -20.5 -21t-34.5 -9q-15 0 -31 8.5t-35 21t-44 27.5t-58 27.5t-76.5 21t-100.5 8.5q-97 0 -177.5 -34.5t-138.5 -100 t-90 -160t-32 -215.5q0 -122 34.5 -217t93.5 -160t139 -99.5t172 -34.5q55 0 99.5 6t82 19t71 33.5t66.5 50.5q10 9 21 14.5t23 5.5q22 0 39 -17z"/>
<glyph glyph-name="Egrave" horiz-adv-x="1150" unicode="È" d="M431 1232v-401h506v-207h-506v-409h642v-215h-912v1446h912v-214h-642zM468 1861q20 0 34.5 -1t26 -5.5t21.5 -12.5t21 -22l218 -271h-179q-29 0 -45.5 3.5t-36.5 20.5l-319 288h259z"/>
<glyph glyph-name="Eacute" horiz-adv-x="1150" unicode="É" d="M431 1232v-401h506v-207h-506v-409h642v-215h-912v1446h912v-214h-642zM1052 1861l-324 -286q-20 -18 -38 -22t-46 -4h-179l209 271q10 14 20 22.5t22 12.5t26.5 5t34.5 1h275z"/>
<glyph glyph-name="Ecircumflex" horiz-adv-x="1150" unicode="Ê" d="M431 1232v-401h506v-207h-506v-409h642v-215h-912v1446h912v-214h-642zM989 1549h-179q-15 0 -36.5 5.5t-44.5 32.5l-82 106q-10 14 -15 22q-5 -8 -15 -22l-82 -106q-23 -27 -44.5 -32.5t-36.5 -5.5h-171l241 275h224z"/>
<glyph glyph-name="Edieresis" horiz-adv-x="1150" unicode="Ë" d="M431 1232v-401h506v-207h-506v-409h642v-215h-912v1446h912v-214h-642zM986 1667q0 -27 -10.5 -51t-29 -42t-43 -28t-51.5 -10q-28 0 -52.5 10t-42.5 28t-28.5 42t-10.5 51t10.5 51.5t28.5 43t42.5 29.5t52.5 11q27 0 51.5 -11t43 -29.5t29 -43t10.5 -51.5zM546 1667 q0 -27 -11 -51t-29.5 -42t-43.5 -28t-53 -10q-26 0 -49.5 10t-41.5 28t-29 42t-11 51t11 51.5t29 43t41.5 29.5t49.5 11q28 0 53 -11t43.5 -29.5t29.5 -43t11 -51.5z"/>
<glyph glyph-name="Igrave" horiz-adv-x="593" unicode="Ì" d="M431 0h-270v1446h270v-1446zM136 1861q20 0 34.5 -1t26 -5.5t21.5 -12.5t21 -22l218 -271h-179q-29 0 -45.5 3.5t-36.5 20.5l-319 288h259z"/>
<glyph glyph-name="Iacute" horiz-adv-x="593" unicode="Í" d="M431 0h-270v1446h270v-1446zM720 1861l-324 -286q-20 -18 -38 -22t-46 -4h-179l209 271q10 14 20 22.5t22 12.5t26.5 5t34.5 1h275z"/>
<glyph glyph-name="Icircumflex" horiz-adv-x="593" unicode="Î" d="M431 0h-270v1446h270v-1446zM657 1549h-179q-15 0 -36.5 5.5t-44.5 32.5l-82 106q-10 14 -15 22q-5 -8 -15 -22l-82 -106q-23 -27 -44.5 -32.5t-36.5 -5.5h-171l241 275h224z"/>
<glyph glyph-name="Idieresis" horiz-adv-x="593" unicode="Ï" d="M431 0h-270v1446h270v-1446zM654 1667q0 -27 -10.5 -51t-29 -42t-43 -28t-51.5 -10q-28 0 -52.5 10t-42.5 28t-28.5 42t-10.5 51t10.5 51.5t28.5 43t42.5 29.5t52.5 11q27 0 51.5 -11t43 -29.5t29 -43t10.5 -51.5zM214 1667q0 -27 -11 -51t-29.5 -42t-43.5 -28t-53 -10 q-26 0 -49.5 10t-41.5 28t-29 42t-11 51t11 51.5t29 43t41.5 29.5t49.5 11q28 0 53 -11t43.5 -29.5t29.5 -43t11 -51.5z"/>
<glyph glyph-name="Eth" horiz-adv-x="1540" unicode="Ð" d="M731 1446q165 0 300 -53.5t231 -149t149 -228.5t53 -292t-53 -292t-149 -229t-231 -149t-300 -53h-551v651h-181v153h181v642h551zM731 214q106 0 190.5 35t143.5 100.5t91 160t32 213.5t-32 213.5t-91 160t-143.5 100.5t-190.5 35h-281v-428h266v-153h-266v-437h281z "/>
<glyph glyph-name="Ntilde" horiz-adv-x="1541" unicode="Ñ" d="M1380 1446v-1446h-138q-32 0 -53.5 10.5t-41.5 35.5l-755 964q6 -66 6 -122v-888h-237v1446h141q17 0 29.5 -1.5t22 -6t18.5 -13t20 -22.5l758 -968q-3 35 -5 69t-2 63v879h237zM904 1699q22 0 38.5 9t27 22.5t15.5 30t5 32.5h151q0 -50 -13.5 -95.5t-40 -81t-65 -56.5 t-88.5 -21q-51 0 -88.5 16t-68.5 34.5t-56.5 34.5t-52.5 16q-23 0 -39 -9t-26 -23t-15 -31t-5 -33h-153q0 49 14 95.5t40.5 82t65 57t88.5 21.5q51 0 89 -16t68 -34.5t56 -34.5t53 -16z"/>
<glyph glyph-name="Ograve" horiz-adv-x="1616" unicode="Ò" d="M1265 723q0 119 -32 213.5t-91 160.5t-143.5 101t-190.5 35t-190.5 -35t-144 -101t-91.5 -160.5t-32 -213.5t32 -213.5t91.5 -160t144 -100.5t190.5 -35t190.5 35t143.5 100.5t91 160t32 213.5zM1540 723q0 -159 -52.5 -294.5t-148.5 -234.5t-231 -154.5t-300 -55.5 q-164 0 -299 55.5t-231.5 154.5t-149.5 234.5t-53 294.5t53 294.5t149.5 234.5t231.5 154.5t299 55.5q110 0 207 -25.5t178 -72t145.5 -113t109.5 -148.5t68.5 -178t23.5 -202zM646 1861q20 0 34.5 -1t26 -5.5t21.5 -12.5t21 -22l218 -271h-179q-29 0 -45.5 3.5t-36.5 20.5 l-319 288h259z"/>
<glyph glyph-name="Oacute" horiz-adv-x="1616" unicode="Ó" d="M1265 723q0 119 -32 213.5t-91 160.5t-143.5 101t-190.5 35t-190.5 -35t-144 -101t-91.5 -160.5t-32 -213.5t32 -213.5t91.5 -160t144 -100.5t190.5 -35t190.5 35t143.5 100.5t91 160t32 213.5zM1540 723q0 -159 -52.5 -294.5t-148.5 -234.5t-231 -154.5t-300 -55.5 q-164 0 -299 55.5t-231.5 154.5t-149.5 234.5t-53 294.5t53 294.5t149.5 234.5t231.5 154.5t299 55.5q110 0 207 -25.5t178 -72t145.5 -113t109.5 -148.5t68.5 -178t23.5 -202zM1230 1861l-324 -286q-20 -18 -38 -22t-46 -4h-179l209 271q10 14 20 22.5t22 12.5t26.5 5 t34.5 1h275z"/>
<glyph glyph-name="Ocircumflex" horiz-adv-x="1616" unicode="Ô" d="M1265 723q0 119 -32 213.5t-91 160.5t-143.5 101t-190.5 35t-190.5 -35t-144 -101t-91.5 -160.5t-32 -213.5t32 -213.5t91.5 -160t144 -100.5t190.5 -35t190.5 35t143.5 100.5t91 160t32 213.5zM1540 723q0 -159 -52.5 -294.5t-148.5 -234.5t-231 -154.5t-300 -55.5 q-164 0 -299 55.5t-231.5 154.5t-149.5 234.5t-53 294.5t53 294.5t149.5 234.5t231.5 154.5t299 55.5q110 0 207 -25.5t178 -72t145.5 -113t109.5 -148.5t68.5 -178t23.5 -202zM1167 1549h-179q-15 0 -36.5 5.5t-44.5 32.5l-82 106q-10 14 -15 22q-5 -8 -15 -22l-82 -106 q-23 -27 -44.5 -32.5t-36.5 -5.5h-171l241 275h224z"/>
<glyph glyph-name="Otilde" horiz-adv-x="1616" unicode="Õ" d="M1265 723q0 119 -32 213.5t-91 160.5t-143.5 101t-190.5 35t-190.5 -35t-144 -101t-91.5 -160.5t-32 -213.5t32 -213.5t91.5 -160t144 -100.5t190.5 -35t190.5 35t143.5 100.5t91 160t32 213.5zM1540 723q0 -159 -52.5 -294.5t-148.5 -234.5t-231 -154.5t-300 -55.5 q-164 0 -299 55.5t-231.5 154.5t-149.5 234.5t-53 294.5t53 294.5t149.5 234.5t231.5 154.5t299 55.5q110 0 207 -25.5t178 -72t145.5 -113t109.5 -148.5t68.5 -178t23.5 -202zM935 1699q22 0 38.5 9t27 22.5t15.5 30t5 32.5h151q0 -50 -13.5 -95.5t-40 -81t-65 -56.5 t-88.5 -21q-51 0 -88.5 16t-68.5 34.5t-56.5 34.5t-52.5 16q-23 0 -39 -9t-26 -23t-15 -31t-5 -33h-153q0 49 14 95.5t40.5 82t65 57t88.5 21.5q51 0 89 -16t68 -34.5t56 -34.5t53 -16z"/>
<glyph glyph-name="Odieresis" horiz-adv-x="1616" unicode="Ö" d="M1265 723q0 119 -32 213.5t-91 160.5t-143.5 101t-190.5 35t-190.5 -35t-144 -101t-91.5 -160.5t-32 -213.5t32 -213.5t91.5 -160t144 -100.5t190.5 -35t190.5 35t143.5 100.5t91 160t32 213.5zM1540 723q0 -159 -52.5 -294.5t-148.5 -234.5t-231 -154.5t-300 -55.5 q-164 0 -299 55.5t-231.5 154.5t-149.5 234.5t-53 294.5t53 294.5t149.5 234.5t231.5 154.5t299 55.5q110 0 207 -25.5t178 -72t145.5 -113t109.5 -148.5t68.5 -178t23.5 -202zM1164 1667q0 -27 -10.5 -51t-29 -42t-43 -28t-51.5 -10q-28 0 -52.5 10t-42.5 28t-28.5 42 t-10.5 51t10.5 51.5t28.5 43t42.5 29.5t52.5 11q27 0 51.5 -11t43 -29.5t29 -43t10.5 -51.5zM724 1667q0 -27 -11 -51t-29.5 -42t-43.5 -28t-53 -10q-26 0 -49.5 10t-41.5 28t-29 42t-11 51t11 51.5t29 43t41.5 29.5t49.5 11q28 0 53 -11t43.5 -29.5t29.5 -43t11 -51.5z"/>
<glyph glyph-name="multiply" d="M921 202l-339 339l-342 -341l-131 129l342 343l-326 326l130 130l326 -326l324 324l132 -130l-325 -325l340 -340z" unicode="×"/>
<glyph glyph-name="Oslash" horiz-adv-x="1616" unicode="Ø" d="M1324 1266q103 -100 159.5 -238.5t56.5 -304.5q0 -159 -52.5 -294.5t-148.5 -234.5t-231 -154.5t-300 -55.5q-101 0 -190 21t-167 61l-76 -105q-29 -40 -69 -56t-79 -16h-106l195 268q-115 100 -178 245t-63 321q0 159 53 294.5t149.5 234.5t231.5 154.5t299 55.5 q111 0 207.5 -25t178.5 -73l59 82q13 18 24 30.5t23 20.5t27.5 11.5t37.5 3.5h137zM1053 1171q-51 30 -112.5 46t-132.5 16q-106 0 -190.5 -35t-144 -101t-91.5 -160.5t-32 -213.5q0 -115 29 -206t85 -157zM592 260q95 -46 216 -46q106 0 190.5 35t143.5 100.5t91 160 t32 213.5q0 103 -23.5 187.5t-68.5 148.5z"/>
<glyph glyph-name="Ugrave" horiz-adv-x="1485" unicode="Ù" d="M743 217q78 0 139.5 26t103.5 73t64.5 114t22.5 150v866h269v-866q0 -129 -41.5 -238.5t-119 -189t-188.5 -124t-250 -44.5q-140 0 -251 44.5t-188.5 124t-119 189t-41.5 238.5v866h269v-865q0 -83 22.5 -150t65 -114.5t104 -73.5t139.5 -26zM579 1861q20 0 34.5 -1 t26 -5.5t21.5 -12.5t21 -22l218 -271h-179q-29 0 -45.5 3.5t-36.5 20.5l-319 288h259z"/>
<glyph glyph-name="Uacute" horiz-adv-x="1485" unicode="Ú" d="M743 217q78 0 139.5 26t103.5 73t64.5 114t22.5 150v866h269v-866q0 -129 -41.5 -238.5t-119 -189t-188.5 -124t-250 -44.5q-140 0 -251 44.5t-188.5 124t-119 189t-41.5 238.5v866h269v-865q0 -83 22.5 -150t65 -114.5t104 -73.5t139.5 -26zM1163 1861l-324 -286 q-20 -18 -38 -22t-46 -4h-179l209 271q10 14 20 22.5t22 12.5t26.5 5t34.5 1h275z"/>
<glyph glyph-name="Ucircumflex" horiz-adv-x="1485" unicode="Û" d="M743 217q78 0 139.5 26t103.5 73t64.5 114t22.5 150v866h269v-866q0 -129 -41.5 -238.5t-119 -189t-188.5 -124t-250 -44.5q-140 0 -251 44.5t-188.5 124t-119 189t-41.5 238.5v866h269v-865q0 -83 22.5 -150t65 -114.5t104 -73.5t139.5 -26zM1100 1549h-179 q-15 0 -36.5 5.5t-44.5 32.5l-82 106q-10 14 -15 22q-5 -8 -15 -22l-82 -106q-23 -27 -44.5 -32.5t-36.5 -5.5h-171l241 275h224z"/>
<glyph glyph-name="Udieresis" horiz-adv-x="1485" unicode="Ü" d="M743 217q78 0 139.5 26t103.5 73t64.5 114t22.5 150v866h269v-866q0 -129 -41.5 -238.5t-119 -189t-188.5 -124t-250 -44.5q-140 0 -251 44.5t-188.5 124t-119 189t-41.5 238.5v866h269v-865q0 -83 22.5 -150t65 -114.5t104 -73.5t139.5 -26zM1097 1667q0 -27 -10.5 -51 t-29 -42t-43 -28t-51.5 -10q-28 0 -52.5 10t-42.5 28t-28.5 42t-10.5 51t10.5 51.5t28.5 43t42.5 29.5t52.5 11q27 0 51.5 -11t43 -29.5t29 -43t10.5 -51.5zM657 1667q0 -27 -11 -51t-29.5 -42t-43.5 -28t-53 -10q-26 0 -49.5 10t-41.5 28t-29 42t-11 51t11 51.5t29 43 t41.5 29.5t49.5 11q28 0 53 -11t43.5 -29.5t29.5 -43t11 -51.5z"/>
<glyph glyph-name="Yacute" horiz-adv-x="1296" unicode="Ý" d="M782 560v-560h-268v560l-527 886h237q35 0 55.5 -17t34.5 -43l264 -483q23 -43 40.5 -81t31.5 -76q13 38 30 76t39 81l263 483q11 22 33 41t56 19h238zM1071 1861l-324 -286q-20 -18 -38 -22t-46 -4h-179l209 271q10 14 20 22.5t22 12.5t26.5 5t34.5 1h275z"/>
<glyph glyph-name="Thorn" horiz-adv-x="1231" unicode="Þ" d="M631 1198q145 0 251 -34t175 -95t102.5 -146t33.5 -186q0 -105 -35 -192.5t-105 -150.5t-175.5 -98t-246.5 -35h-201v-261h-269v1446h269v-248h201zM631 471q74 0 129 18.5t91.5 53t54.5 84t18 110.5q0 58 -18 105t-54 80t-91 50.5t-130 17.5h-201v-519h201z"/>
<glyph glyph-name="germandbls" horiz-adv-x="1205" unicode="ß" d="M646 1471q117 0 200 -34t135 -85t76 -110t24 -110q0 -58 -19.5 -99t-49 -72t-63.5 -54t-63.5 -44t-49 -43.5t-19.5 -51.5q0 -33 25 -57t62 -47t81 -49t81 -63.5t62 -90.5t25 -130q0 -85 -31.5 -149.5t-85.5 -108.5t-125.5 -66.5t-151.5 -22.5q-46 0 -91 9.5t-86.5 26.5 t-78.5 40t-67 50l58 94q10 17 25 26t38 9t44 -13t46 -28t57 -28t77 -13q63 0 101.5 37.5t38.5 97.5q0 47 -27 78t-67 55.5t-87.5 48t-87.5 55t-67 76.5t-27 114q0 57 21 98t52.5 73t68 57.5t68 52.5t52.5 58t21 73q0 33 -11.5 62.5t-36.5 51t-64 34.5t-94 13 q-131 0 -198.5 -80.5t-67.5 -235.5v-976h-247v984q0 106 36 195t104 154t165 101.5t219 36.5z"/>
<glyph glyph-name="agrave" horiz-adv-x="1015" unicode="à" d="M98 883q177 162 426 162q90 0 161 -29.5t120 -82t74.5 -125.5t25.5 -160v-648h-112q-35 0 -54 10.5t-30 42.5l-22 74q-39 -35 -76 -61.5t-77 -44.5t-85.5 -27.5t-100.5 -9.5q-65 0 -120 17.5t-95 52.5t-62 87t-22 121q0 39 13 77.5t42.5 73.5t76.5 66t115.5 54 t159.5 37.5t208 17.5v60q0 103 -44 152.5t-127 49.5q-60 0 -99.5 -14t-69.5 -31.5t-54.5 -31.5t-54.5 -14q-26 0 -44 13.5t-29 31.5zM664 438q-107 -5 -180 -18.5t-117 -34.5t-63 -49t-19 -61q0 -65 38.5 -93t100.5 -28q76 0 131.5 27.5t108.5 83.5v173zM412 1462 q41 0 61 -13.5t34 -39.5l143 -243h-141q-28 0 -45.5 7.5t-35.5 27.5l-247 261h231z"/>
<glyph glyph-name="aacute" horiz-adv-x="1015" unicode="á" d="M98 883q177 162 426 162q90 0 161 -29.5t120 -82t74.5 -125.5t25.5 -160v-648h-112q-35 0 -54 10.5t-30 42.5l-22 74q-39 -35 -76 -61.5t-77 -44.5t-85.5 -27.5t-100.5 -9.5q-65 0 -120 17.5t-95 52.5t-62 87t-22 121q0 39 13 77.5t42.5 73.5t76.5 66t115.5 54 t159.5 37.5t208 17.5v60q0 103 -44 152.5t-127 49.5q-60 0 -99.5 -14t-69.5 -31.5t-54.5 -31.5t-54.5 -14q-26 0 -44 13.5t-29 31.5zM664 438q-107 -5 -180 -18.5t-117 -34.5t-63 -49t-19 -61q0 -65 38.5 -93t100.5 -28q76 0 131.5 27.5t108.5 83.5v173zM847 1462l-247 -261 q-19 -20 -36.5 -27.5t-45.5 -7.5h-148l142 243q15 26 35 39.5t60 13.5h240z"/>
<glyph glyph-name="acircumflex" horiz-adv-x="1015" unicode="â" d="M98 883q177 162 426 162q90 0 161 -29.5t120 -82t74.5 -125.5t25.5 -160v-648h-112q-35 0 -54 10.5t-30 42.5l-22 74q-39 -35 -76 -61.5t-77 -44.5t-85.5 -27.5t-100.5 -9.5q-65 0 -120 17.5t-95 52.5t-62 87t-22 121q0 39 13 77.5t42.5 73.5t76.5 66t115.5 54 t159.5 37.5t208 17.5v60q0 103 -44 152.5t-127 49.5q-60 0 -99.5 -14t-69.5 -31.5t-54.5 -31.5t-54.5 -14q-26 0 -44 13.5t-29 31.5zM664 438q-107 -5 -180 -18.5t-117 -34.5t-63 -49t-19 -61q0 -65 38.5 -93t100.5 -28q76 0 131.5 27.5t108.5 83.5v173zM846 1168h-165 q-14 0 -28.5 5.5t-28.5 19.5l-98 104q-11 10 -21 24q-11 -14 -21 -24l-100 -104q-12 -13 -27 -19t-30 -6h-171l229 278h232z"/>
<glyph glyph-name="atilde" horiz-adv-x="1015" unicode="ã" d="M98 883q177 162 426 162q90 0 161 -29.5t120 -82t74.5 -125.5t25.5 -160v-648h-112q-35 0 -54 10.5t-30 42.5l-22 74q-39 -35 -76 -61.5t-77 -44.5t-85.5 -27.5t-100.5 -9.5q-65 0 -120 17.5t-95 52.5t-62 87t-22 121q0 39 13 77.5t42.5 73.5t76.5 66t115.5 54 t159.5 37.5t208 17.5v60q0 103 -44 152.5t-127 49.5q-60 0 -99.5 -14t-69.5 -31.5t-54.5 -31.5t-54.5 -14q-26 0 -44 13.5t-29 31.5zM664 438q-107 -5 -180 -18.5t-117 -34.5t-63 -49t-19 -61q0 -65 38.5 -93t100.5 -28q76 0 131.5 27.5t108.5 83.5v173zM608 1359 q30 0 47 16.5t17 59.5h150q0 -56 -15.5 -101.5t-42.5 -78t-64.5 -50t-82.5 -17.5q-36 0 -67 13t-58 28t-50.5 28t-43.5 13q-29 0 -45.5 -17.5t-16.5 -59.5h-153q0 56 15.5 101.5t43.5 78t65.5 50.5t81.5 18q36 0 67.5 -13t58.5 -28t50 -28t43 -13z"/>
<glyph glyph-name="adieresis" horiz-adv-x="1015" unicode="ä" d="M98 883q177 162 426 162q90 0 161 -29.5t120 -82t74.5 -125.5t25.5 -160v-648h-112q-35 0 -54 10.5t-30 42.5l-22 74q-39 -35 -76 -61.5t-77 -44.5t-85.5 -27.5t-100.5 -9.5q-65 0 -120 17.5t-95 52.5t-62 87t-22 121q0 39 13 77.5t42.5 73.5t76.5 66t115.5 54 t159.5 37.5t208 17.5v60q0 103 -44 152.5t-127 49.5q-60 0 -99.5 -14t-69.5 -31.5t-54.5 -31.5t-54.5 -14q-26 0 -44 13.5t-29 31.5zM664 438q-107 -5 -180 -18.5t-117 -34.5t-63 -49t-19 -61q0 -65 38.5 -93t100.5 -28q76 0 131.5 27.5t108.5 83.5v173zM841 1292 q0 -28 -11 -52.5t-29.5 -42.5t-44 -28.5t-54.5 -10.5q-28 0 -53 10.5t-43.5 28.5t-29.5 42.5t-11 52.5q0 29 11 54.5t29.5 44.5t43.5 30t53 11q29 0 54.5 -11t44 -30t29.5 -44.5t11 -54.5zM437 1292q0 -28 -11 -52.5t-30.5 -42.5t-45 -28.5t-54.5 -10.5q-27 0 -51.5 10.5 t-43 28.5t-29.5 42.5t-11 52.5q0 29 11 54.5t29.5 44.5t43 30t51.5 11q29 0 54.5 -11t45 -30t30.5 -44.5t11 -54.5z"/>
<glyph glyph-name="aring" horiz-adv-x="1015" unicode="å" d="M98 883q177 162 426 162q90 0 161 -29.5t120 -82t74.5 -125.5t25.5 -160v-648h-112q-35 0 -54 10.5t-30 42.5l-22 74q-39 -35 -76 -61.5t-77 -44.5t-85.5 -27.5t-100.5 -9.5q-65 0 -120 17.5t-95 52.5t-62 87t-22 121q0 39 13 77.5t42.5 73.5t76.5 66t115.5 54 t159.5 37.5t208 17.5v60q0 103 -44 152.5t-127 49.5q-60 0 -99.5 -14t-69.5 -31.5t-54.5 -31.5t-54.5 -14q-26 0 -44 13.5t-29 31.5zM664 438q-107 -5 -180 -18.5t-117 -34.5t-63 -49t-19 -61q0 -65 38.5 -93t100.5 -28q76 0 131.5 27.5t108.5 83.5v173zM413 1325 q0 -38 23.5 -63.5t67.5 -25.5q40 0 64 25.5t24 63.5q0 42 -24 66.5t-64 24.5q-44 0 -67.5 -24.5t-23.5 -66.5zM279 1325q0 46 18 84t48.5 65t70.5 42t84 15q45 0 86 -15t72 -42t49.5 -65t18.5 -84q0 -45 -18.5 -82t-49.5 -63.5t-72 -41t-86 -14.5q-44 0 -84 14.5t-70.5 41 t-48.5 63.5t-18 82z"/>
<glyph glyph-name="ae" horiz-adv-x="1619" unicode="æ" d="M900 462q14 -147 83.5 -216.5t178.5 -69.5q68 0 111 13t71 29t46.5 29t39.5 13q36 0 50 -23l67 -84q-41 -48 -90.5 -80.5t-102.5 -52t-108 -27.5t-107 -8q-109 0 -203.5 49t-155.5 153q-30 -54 -74.5 -92t-97.5 -63t-113 -36.5t-121 -11.5q-74 0 -134 19t-102 55.5 t-64.5 91t-22.5 125.5q0 39 13 78t42.5 76t76.5 69t115.5 57t159.5 40t208 18v35q0 103 -44 156t-127 53q-60 0 -99.5 -15.5t-69.5 -33.5t-54.5 -33.5t-54.5 -15.5q-26 0 -44 13.5t-29 31.5l-44 79q89 81 185.5 121.5t214.5 40.5q116 0 190 -44t112 -121q57 75 142 118.5 t200 43.5q87 0 162 -33.5t130 -96.5t86.5 -153t31.5 -202q0 -28 -2.5 -46.5t-8.5 -29t-16.5 -15t-27.5 -4.5h-599zM1334 611q0 49 -12 95t-37 81.5t-62.5 56.5t-88.5 21q-104 0 -161.5 -66.5t-71.5 -187.5h433zM666 462q-107 -5 -179.5 -20.5t-116.5 -38.5t-63 -53t-19 -63 q0 -69 38.5 -101t107.5 -32q49 0 91.5 15t73.5 46.5t49 81.5t18 119v46z"/>
<glyph glyph-name="ccedilla" horiz-adv-x="966" unicode="ç" d="M932 153q-68 -80 -153.5 -117.5t-176.5 -46.5l-13 -50q94 -22 131.5 -59.5t37.5 -89.5q0 -34 -17.5 -61t-50 -46t-77 -29t-98.5 -10q-41 0 -77 5.5t-70 16.5l22 77q6 23 29 23q14 0 31 -7.5t49 -7.5q33 0 49.5 12.5t16.5 30.5q0 29 -36 41.5t-111 23.5l44 131 q-84 12 -156 52.5t-125 107t-83.5 158.5t-30.5 207q0 113 32.5 209.5t95.5 167t156 110.5t214 40q115 0 201.5 -37t155.5 -106l-65 -90q-11 -14 -21.5 -22t-30.5 -8q-19 0 -37 11.5t-43 26t-59.5 26t-85.5 11.5q-65 0 -114 -23.5t-81.5 -67.5t-48.5 -106.5t-16 -141.5 q0 -82 17.5 -146t50.5 -107.5t80 -66t106 -22.5t95.5 14.5t61.5 32t43.5 32t41.5 14.5q30 0 45 -23z"/>
<glyph glyph-name="egrave" horiz-adv-x="1068" unicode="è" d="M312 482q6 -79 28 -136.5t58 -95t85.5 -56t109.5 -18.5t103.5 14t76 31t57 31t47.5 14q31 0 46 -23l71 -90q-41 -48 -92 -80.5t-106.5 -52t-113 -27.5t-111.5 -8q-107 0 -199 35.5t-160 105t-107 172t-39 237.5q0 105 34 197.5t97.5 161t155 108.5t206.5 40q97 0 179 -31 t141 -90.5t92.5 -146t33.5 -197.5q0 -56 -12 -75.5t-46 -19.5h-635zM783 631q0 48 -13.5 90.5t-40.5 74.5t-68.5 50.5t-96.5 18.5q-107 0 -168.5 -61t-78.5 -173h466zM476 1462q41 0 61 -13.5t34 -39.5l143 -243h-141q-28 0 -45.5 7.5t-35.5 27.5l-247 261h231z"/>
<glyph glyph-name="eacute" horiz-adv-x="1068" unicode="é" d="M312 482q6 -79 28 -136.5t58 -95t85.5 -56t109.5 -18.5t103.5 14t76 31t57 31t47.5 14q31 0 46 -23l71 -90q-41 -48 -92 -80.5t-106.5 -52t-113 -27.5t-111.5 -8q-107 0 -199 35.5t-160 105t-107 172t-39 237.5q0 105 34 197.5t97.5 161t155 108.5t206.5 40q97 0 179 -31 t141 -90.5t92.5 -146t33.5 -197.5q0 -56 -12 -75.5t-46 -19.5h-635zM783 631q0 48 -13.5 90.5t-40.5 74.5t-68.5 50.5t-96.5 18.5q-107 0 -168.5 -61t-78.5 -173h466zM911 1462l-247 -261q-19 -20 -36.5 -27.5t-45.5 -7.5h-148l142 243q15 26 35 39.5t60 13.5h240z"/>
<glyph glyph-name="ecircumflex" horiz-adv-x="1068" unicode="ê" d="M312 482q6 -79 28 -136.5t58 -95t85.5 -56t109.5 -18.5t103.5 14t76 31t57 31t47.5 14q31 0 46 -23l71 -90q-41 -48 -92 -80.5t-106.5 -52t-113 -27.5t-111.5 -8q-107 0 -199 35.5t-160 105t-107 172t-39 237.5q0 105 34 197.5t97.5 161t155 108.5t206.5 40q97 0 179 -31 t141 -90.5t92.5 -146t33.5 -197.5q0 -56 -12 -75.5t-46 -19.5h-635zM783 631q0 48 -13.5 90.5t-40.5 74.5t-68.5 50.5t-96.5 18.5q-107 0 -168.5 -61t-78.5 -173h466zM910 1168h-165q-14 0 -28.5 5.5t-28.5 19.5l-98 104q-11 10 -21 24q-11 -14 -21 -24l-100 -104 q-12 -13 -27 -19t-30 -6h-171l229 278h232z"/>
<glyph glyph-name="edieresis" horiz-adv-x="1068" unicode="ë" d="M312 482q6 -79 28 -136.5t58 -95t85.5 -56t109.5 -18.5t103.5 14t76 31t57 31t47.5 14q31 0 46 -23l71 -90q-41 -48 -92 -80.5t-106.5 -52t-113 -27.5t-111.5 -8q-107 0 -199 35.5t-160 105t-107 172t-39 237.5q0 105 34 197.5t97.5 161t155 108.5t206.5 40q97 0 179 -31 t141 -90.5t92.5 -146t33.5 -197.5q0 -56 -12 -75.5t-46 -19.5h-635zM783 631q0 48 -13.5 90.5t-40.5 74.5t-68.5 50.5t-96.5 18.5q-107 0 -168.5 -61t-78.5 -173h466zM905 1292q0 -28 -11 -52.5t-29.5 -42.5t-44 -28.5t-54.5 -10.5q-28 0 -53 10.5t-43.5 28.5t-29.5 42.5 t-11 52.5q0 29 11 54.5t29.5 44.5t43.5 30t53 11q29 0 54.5 -11t44 -30t29.5 -44.5t11 -54.5zM501 1292q0 -28 -11 -52.5t-30.5 -42.5t-45 -28.5t-54.5 -10.5q-27 0 -51.5 10.5t-43 28.5t-29.5 42.5t-11 52.5q0 29 11 54.5t29.5 44.5t43 30t51.5 11q29 0 54.5 -11t45 -30 t30.5 -44.5t11 -54.5z"/>
<glyph glyph-name="igrave" horiz-adv-x="508" unicode="ì" d="M377 1026v-1026h-247v1026h247zM172 1462q41 0 61 -13.5t34 -39.5l143 -243h-141q-28 0 -45.5 7.5t-35.5 27.5l-247 261h231z"/>
<glyph glyph-name="iacute" horiz-adv-x="509" unicode="í" d="M378 1026v-1026h-247v1026h247zM608 1462l-247 -261q-19 -20 -36.5 -27.5t-45.5 -7.5h-148l142 243q15 26 35 39.5t60 13.5h240z"/>
<glyph glyph-name="icircumflex" horiz-adv-x="508" unicode="î" d="M377 1026v-1026h-247v1026h247zM606 1168h-165q-14 0 -28.5 5.5t-28.5 19.5l-98 104q-11 10 -21 24q-11 -14 -21 -24l-100 -104q-12 -13 -27 -19t-30 -6h-171l229 278h232z"/>
<glyph glyph-name="idieresis" horiz-adv-x="508" unicode="ï" d="M377 1026v-1026h-247v1026h247zM569 1292q0 -28 -11 -52.5t-29.5 -42.5t-44 -28.5t-54.5 -10.5q-28 0 -53 10.5t-43.5 28.5t-29.5 42.5t-11 52.5q0 29 11 54.5t29.5 44.5t43.5 30t53 11q29 0 54.5 -11t44 -30t29.5 -44.5t11 -54.5zM229 1292q0 -28 -11 -52.5t-30.5 -42.5 t-45 -28.5t-53.5 -10.5q-27 0 -51.5 10.5t-43.5 28.5t-30 42.5t-11 52.5q0 29 11 54.5t30 44.5t43.5 30t51.5 11q28 0 53.5 -11t45 -30t30.5 -44.5t11 -54.5z"/>
<glyph glyph-name="eth" horiz-adv-x="1141" unicode="ð" d="M815 1215q57 -50 103 -112.5t78.5 -138t50 -164.5t17.5 -192q0 -147 -33.5 -262.5t-98.5 -196t-161 -122.5t-220 -42q-104 0 -193 33.5t-154 96.5t-102.5 153.5t-37.5 205.5q0 92 32.5 175t92 145.5t144 99.5t188.5 37q191 0 313 -134q-21 106 -70.5 182t-135.5 133 l-197 -128l-47 78q-15 23 -9 45t31 36l75 44q-66 24 -142 45q-16 4 -29 13.5t-20.5 24t-8 34t8.5 43.5l28 85q101 -17 194.5 -48t177.5 -79l175 113l49 -80q14 -22 8 -42.5t-27 -34.5zM557 173q58 0 107 21t85 67.5t58 121t25 180.5q-16 37 -39.5 70t-55.5 57.5t-73 38.5 t-93 14q-64 0 -113 -21t-82 -58t-50 -86t-17 -106q0 -73 19.5 -128.5t53 -93.5t79 -57.5t96.5 -19.5z"/>
<glyph glyph-name="ntilde" horiz-adv-x="1128" unicode="ñ" d="M353 900q31 31 65.5 57.5t73 45t82.5 29t96 10.5q84 0 149 -28.5t108.5 -80t66 -123t22.5 -157.5v-653h-247v653q0 94 -43 145.5t-131 51.5q-64 0 -120 -29t-106 -79v-742h-247v1026h151q48 0 63 -45zM681 1359q30 0 47 16.5t17 59.5h150q0 -56 -15.5 -101.5t-42.5 -78 t-64.5 -50t-82.5 -17.5q-36 0 -67 13t-58 28t-50.5 28t-43.5 13q-29 0 -45.5 -17.5t-16.5 -59.5h-153q0 56 15.5 101.5t43.5 78t65.5 50.5t81.5 18q36 0 67.5 -13t58.5 -28t50 -28t43 -13z"/>
<glyph glyph-name="ograve" horiz-adv-x="1149" unicode="ò" d="M576 175q128 0 189.5 86t61.5 252t-61.5 253t-189.5 87q-130 0 -192.5 -87.5t-62.5 -252.5t62.5 -251.5t192.5 -86.5zM576 1042q114 0 207.5 -37t160 -105t102.5 -166t36 -219q0 -122 -36 -220t-102.5 -167t-160 -106t-207.5 -37q-115 0 -209 37t-160.5 106t-103 167 t-36.5 220q0 121 36.5 219t103 166t160.5 105t209 37zM487 1462q41 0 61 -13.5t34 -39.5l143 -243h-141q-28 0 -45.5 7.5t-35.5 27.5l-247 261h231z"/>
<glyph glyph-name="oacute" horiz-adv-x="1149" unicode="ó" d="M576 175q128 0 189.5 86t61.5 252t-61.5 253t-189.5 87q-130 0 -192.5 -87.5t-62.5 -252.5t62.5 -251.5t192.5 -86.5zM576 1042q114 0 207.5 -37t160 -105t102.5 -166t36 -219q0 -122 -36 -220t-102.5 -167t-160 -106t-207.5 -37q-115 0 -209 37t-160.5 106t-103 167 t-36.5 220q0 121 36.5 219t103 166t160.5 105t209 37zM922 1462l-247 -261q-19 -20 -36.5 -27.5t-45.5 -7.5h-148l142 243q15 26 35 39.5t60 13.5h240z"/>
<glyph glyph-name="ocircumflex" horiz-adv-x="1149" unicode="ô" d="M576 175q128 0 189.5 86t61.5 252t-61.5 253t-189.5 87q-130 0 -192.5 -87.5t-62.5 -252.5t62.5 -251.5t192.5 -86.5zM576 1042q114 0 207.5 -37t160 -105t102.5 -166t36 -219q0 -122 -36 -220t-102.5 -167t-160 -106t-207.5 -37q-115 0 -209 37t-160.5 106t-103 167 t-36.5 220q0 121 36.5 219t103 166t160.5 105t209 37zM921 1168h-165q-14 0 -28.5 5.5t-28.5 19.5l-98 104q-11 10 -21 24q-11 -14 -21 -24l-100 -104q-12 -13 -27 -19t-30 -6h-171l229 278h232z"/>
<glyph glyph-name="otilde" horiz-adv-x="1149" unicode="õ" d="M576 175q128 0 189.5 86t61.5 252t-61.5 253t-189.5 87q-130 0 -192.5 -87.5t-62.5 -252.5t62.5 -251.5t192.5 -86.5zM576 1042q114 0 207.5 -37t160 -105t102.5 -166t36 -219q0 -122 -36 -220t-102.5 -167t-160 -106t-207.5 -37q-115 0 -209 37t-160.5 106t-103 167 t-36.5 220q0 121 36.5 219t103 166t160.5 105t209 37zM683 1359q30 0 47 16.5t17 59.5h150q0 -56 -15.5 -101.5t-42.5 -78t-64.5 -50t-82.5 -17.5q-36 0 -67 13t-58 28t-50.5 28t-43.5 13q-29 0 -45.5 -17.5t-16.5 -59.5h-153q0 56 15.5 101.5t43.5 78t65.5 50.5t81.5 18 q36 0 67.5 -13t58.5 -28t50 -28t43 -13z"/>
<glyph glyph-name="odieresis" horiz-adv-x="1149" unicode="ö" d="M576 175q128 0 189.5 86t61.5 252t-61.5 253t-189.5 87q-130 0 -192.5 -87.5t-62.5 -252.5t62.5 -251.5t192.5 -86.5zM576 1042q114 0 207.5 -37t160 -105t102.5 -166t36 -219q0 -122 -36 -220t-102.5 -167t-160 -106t-207.5 -37q-115 0 -209 37t-160.5 106t-103 167 t-36.5 220q0 121 36.5 219t103 166t160.5 105t209 37zM916 1292q0 -28 -11 -52.5t-29.5 -42.5t-44 -28.5t-54.5 -10.5q-28 0 -53 10.5t-43.5 28.5t-29.5 42.5t-11 52.5q0 29 11 54.5t29.5 44.5t43.5 30t53 11q29 0 54.5 -11t44 -30t29.5 -44.5t11 -54.5zM512 1292 q0 -28 -11 -52.5t-30.5 -42.5t-45 -28.5t-54.5 -10.5q-27 0 -51.5 10.5t-43 28.5t-29.5 42.5t-11 52.5q0 29 11 54.5t29.5 44.5t43 30t51.5 11q29 0 54.5 -11t45 -30t30.5 -44.5t11 -54.5z"/>
<glyph glyph-name="divide" d="M427 315q0 31 11.5 59t32 48t48.5 32t60 12q31 0 59 -12t48.5 -32t32.5 -48t12 -59q0 -32 -12 -59.5t-32.5 -47.5t-48.5 -31.5t-59 -11.5q-32 0 -60 11.5t-48.5 31.5t-32 47.5t-11.5 59.5zM427 1027q0 31 11.5 59t32 48t48.5 32t60 12q31 0 59 -12t48.5 -32t32.5 -48 t12 -59q0 -32 -12 -59.5t-32.5 -47.5t-48.5 -31.5t-59 -11.5q-32 0 -60 11.5t-48.5 31.5t-32 47.5t-11.5 59.5zM92 763h975v-183h-975v183z" unicode="÷"/>
<glyph glyph-name="oslash" horiz-adv-x="1148" unicode="ø" d="M950 893q63 -68 97.5 -163.5t34.5 -214.5q0 -122 -36 -220t-102.5 -167t-160 -106t-207.5 -37q-72 0 -135.5 14.5t-117.5 42.5l-35 -47q-14 -20 -31.5 -34t-37 -22.5t-40.5 -12t-40 -3.5h-90l154 209q-66 69 -101 165.5t-35 217.5t36.5 219t103 166t160.5 105t209 37 q144 0 255 -58l55 75q12 18 22.5 31t23 20.5t28.5 11t38 3.5h122zM714 826q-56 34 -138 34q-131 0 -200.5 -90.5t-69.5 -256.5q0 -119 33 -197zM438 199q59 -32 138 -32q128 0 197 90t69 256q0 59 -8 107t-23 86z"/>
<glyph glyph-name="ugrave" horiz-adv-x="1128" unicode="ù" d="M1006 1026v-1026h-151q-49 0 -62 45l-17 82q-63 -64 -139 -103.5t-179 -39.5q-84 0 -148.5 28.5t-108.5 80.5t-66.5 123.5t-22.5 157.5v652h247v-652q0 -94 43.5 -145.5t130.5 -51.5q64 0 120 28.5t106 78.5v742h247zM475 1462q41 0 61 -13.5t34 -39.5l143 -243h-141 q-28 0 -45.5 7.5t-35.5 27.5l-247 261h231z"/>
<glyph glyph-name="uacute" horiz-adv-x="1128" unicode="ú" d="M1006 1026v-1026h-151q-49 0 -62 45l-17 82q-63 -64 -139 -103.5t-179 -39.5q-84 0 -148.5 28.5t-108.5 80.5t-66.5 123.5t-22.5 157.5v652h247v-652q0 -94 43.5 -145.5t130.5 -51.5q64 0 120 28.5t106 78.5v742h247zM910 1462l-247 -261q-19 -20 -36.5 -27.5t-45.5 -7.5 h-148l142 243q15 26 35 39.5t60 13.5h240z"/>
<glyph glyph-name="ucircumflex" horiz-adv-x="1128" unicode="û" d="M1006 1026v-1026h-151q-49 0 -62 45l-17 82q-63 -64 -139 -103.5t-179 -39.5q-84 0 -148.5 28.5t-108.5 80.5t-66.5 123.5t-22.5 157.5v652h247v-652q0 -94 43.5 -145.5t130.5 -51.5q64 0 120 28.5t106 78.5v742h247zM909 1168h-165q-14 0 -28.5 5.5t-28.5 19.5l-98 104 q-11 10 -21 24q-11 -14 -21 -24l-100 -104q-12 -13 -27 -19t-30 -6h-171l229 278h232z"/>
<glyph glyph-name="udieresis" horiz-adv-x="1128" unicode="ü" d="M1006 1026v-1026h-151q-49 0 -62 45l-17 82q-63 -64 -139 -103.5t-179 -39.5q-84 0 -148.5 28.5t-108.5 80.5t-66.5 123.5t-22.5 157.5v652h247v-652q0 -94 43.5 -145.5t130.5 -51.5q64 0 120 28.5t106 78.5v742h247zM904 1292q0 -28 -11 -52.5t-29.5 -42.5t-44 -28.5 t-54.5 -10.5q-28 0 -53 10.5t-43.5 28.5t-29.5 42.5t-11 52.5q0 29 11 54.5t29.5 44.5t43.5 30t53 11q29 0 54.5 -11t44 -30t29.5 -44.5t11 -54.5zM500 1292q0 -28 -11 -52.5t-30.5 -42.5t-45 -28.5t-54.5 -10.5q-27 0 -51.5 10.5t-43 28.5t-29.5 42.5t-11 52.5 q0 29 11 54.5t29.5 44.5t43 30t51.5 11q29 0 54.5 -11t45 -30t30.5 -44.5t11 -54.5z"/>
<glyph glyph-name="yacute" horiz-adv-x="1055" unicode="ý" d="M1054 1026l-559 -1308q-11 -26 -28.5 -39.5t-53.5 -13.5h-184l192 412l-415 949h217q29 0 45.5 -14t24.5 -32l218 -532q11 -27 18.5 -54t14.5 -55q9 28 18 55.5t20 54.5l206 531q8 20 26.5 33t41.5 13h198zM899 1462l-247 -261q-19 -20 -36.5 -27.5t-45.5 -7.5h-148 l142 243q15 26 35 39.5t60 13.5h240z"/>
<glyph glyph-name="thorn" horiz-adv-x="1136" unicode="þ" d="M369 900q61 64 138.5 103t179.5 39q84 0 153.5 -34.5t120 -100.5t78 -163t27.5 -223q0 -115 -31 -213t-88.5 -170t-139 -112.5t-182.5 -40.5q-88 0 -148.5 31.5t-107.5 85.5v-437h-247v1821h247v-586zM369 266q42 -51 91.5 -72t107.5 -21q56 0 101 21t76.5 64t48.5 108.5 t17 154.5q0 90 -14.5 152.5t-41.5 101.5t-65.5 57t-87.5 18q-77 0 -131 -32.5t-102 -91.5v-460z"/>
<glyph glyph-name="dotlessi" horiz-adv-x="510" unicode="ı" d="M378 1026v-1026h-247v1026h247z"/>
<glyph glyph-name="kgreenlandic" horiz-adv-x="1069" unicode="ĸ" d="M369 1026v-391h46q25 0 39.5 6.5t29.5 26.5l255 315q16 21 35.5 32t50.5 11h226l-319 -381q-34 -45 -74 -69q21 -15 37.5 -35t31.5 -43l342 -498h-223q-29 0 -50 9.5t-35 34.5l-262 389q-14 23 -29 30t-45 7h-56v-470h-247v1026h247z"/>
<glyph glyph-name="OE" horiz-adv-x="2163" unicode="Œ" d="M2086 215l-1 -215h-879v186q-86 -95 -204.5 -148t-264.5 -53q-148 0 -269.5 55.5t-208.5 154t-134.5 234t-47.5 294.5t47.5 294.5t134.5 234.5t208.5 154.5t269.5 55.5q146 0 264.5 -53t204.5 -149v186h879v-214h-641v-401h506v-207h-506v-409h642zM765 207q95 0 171 36 t129 103t81 162.5t28 214.5t-28 214.5t-81 163t-129 103.5t-171 36q-96 0 -172.5 -36t-129.5 -103.5t-81.5 -163t-28.5 -214.5t28.5 -214.5t81.5 -162.5t129.5 -103t172.5 -36z"/>
<glyph glyph-name="oe" horiz-adv-x="1752" unicode="œ" d="M1033 462q14 -147 83.5 -216.5t179.5 -69.5q55 0 95.5 14t71 31t54.5 31t47 14q29 0 43 -23l73 -90q-41 -48 -90.5 -80.5t-102.5 -52t-108 -27.5t-107 -8q-108 0 -202.5 49t-155.5 153q-60 -97 -156.5 -149.5t-225.5 -52.5q-101 0 -186.5 37t-147.5 106t-96.5 167 t-34.5 220q0 121 35 219t97.5 166t150 105t192.5 37q124 0 218 -51t152 -146q55 90 147 143.5t219 53.5q87 0 161.5 -33.5t129.5 -96.5t86 -153t31 -202q0 -28 -2.5 -46.5t-8.5 -29t-16.5 -15t-27.5 -4.5h-598zM1466 611q0 49 -12 95t-36.5 81.5t-62 56.5t-88.5 21 q-104 0 -161.5 -66.5t-71.5 -187.5h432zM556 175q118 0 175 86t57 252t-57 253t-175 87q-120 0 -177 -87.5t-57 -252.5q0 -166 56.5 -252t177.5 -86z"/>
<glyph glyph-name="Scaron" horiz-adv-x="1097" unicode="Š" d="M931 1183q-12 -21 -25.5 -30.5t-33.5 -9.5q-21 0 -45.5 15.5t-58.5 34.5t-79.5 34.5t-107.5 15.5q-56 0 -98 -13.5t-70.5 -37.5t-42.5 -57.5t-14 -73.5q0 -51 28.5 -85t75.5 -58t107 -43t123 -40.5t123 -50t107 -72t75.5 -106.5t28.5 -153q0 -98 -33.5 -183.5t-98 -149 t-157.5 -100t-213 -36.5q-69 0 -136 13.5t-128.5 38.5t-115.5 60t-96 78l79 129q10 14 26 23.5t34 9.5q25 0 54 -20.5t69 -45.5t93.5 -45.5t128.5 -20.5q115 0 178 54.5t63 156.5q0 57 -28.5 93t-75.5 60.5t-107 41.5t-122 37t-122 48t-107 73t-75.5 112.5t-28.5 166.5 q0 79 31.5 154t91.5 133t148 93t202 35q128 0 236 -40t184 -112zM950 1824l-241 -275h-232l-241 275h179q15 0 36 -4t38 -26l89 -117q5 -5 8.5 -11t6.5 -11q3 5 6.5 11t8.5 11l88 116q17 23 38.5 27t36.5 4h179z"/>
<glyph glyph-name="scaron" horiz-adv-x="879" unicode="š" d="M748 826q-10 -16 -21 -22.5t-28 -6.5q-18 0 -38.5 10t-47.5 22.5t-61.5 22.5t-81.5 10q-73 0 -114.5 -31t-41.5 -81q0 -33 21.5 -55.5t57 -39.5t80.5 -30.5t91.5 -29.5t91.5 -36.5t80.5 -52t57 -75.5t21.5 -106q0 -74 -26.5 -136.5t-78.5 -108t-128.5 -71t-176.5 -25.5 q-53 0 -103.5 9.5t-97 26.5t-86 40t-69.5 50l57 94q11 17 26 26t38 9t43.5 -13t47.5 -28t63.5 -28t92.5 -13q44 0 75.5 10.5t52 27.5t30 39.5t9.5 46.5q0 36 -21.5 59t-57 40t-81 30.5t-93 29.5t-93 37.5t-81 54.5t-57 81t-21.5 116q0 63 25 120t73.5 99.5t121 68 t167.5 25.5q106 0 193 -35t145 -92zM800 1446l-229 -278h-232l-229 278h171q15 0 28.5 -5t21.5 -12l106 -111q5 -5 10.5 -11.5t11.5 -13.5q5 7 10.5 13.5t10.5 11.5l105 111q8 6 22 11.5t28 5.5h165z"/>
<glyph glyph-name="Ydieresis" horiz-adv-x="1296" unicode="Ÿ" d="M782 560v-560h-268v560l-527 886h237q35 0 55.5 -17t34.5 -43l264 -483q23 -43 40.5 -81t31.5 -76q13 38 30 76t39 81l263 483q11 22 33 41t56 19h238zM1004 1667q0 -27 -10.5 -51t-29 -42t-43 -28t-51.5 -10q-28 0 -52.5 10t-42.5 28t-28.5 42t-10.5 51t10.5 51.5 t28.5 43t42.5 29.5t52.5 11q27 0 51.5 -11t43 -29.5t29 -43t10.5 -51.5zM564 1667q0 -27 -11 -51t-29.5 -42t-43.5 -28t-53 -10q-26 0 -49.5 10t-41.5 28t-29 42t-11 51t11 51.5t29 43t41.5 29.5t49.5 11q28 0 53 -11t43.5 -29.5t29.5 -43t11 -51.5z"/>
<glyph glyph-name="circumflex" horiz-adv-x="800" unicode="ˆ" d="M745 1168h-165q-14 0 -28.5 5.5t-28.5 19.5l-98 104q-11 10 -21 24q-11 -14 -21 -24l-100 -104q-12 -13 -27 -19t-30 -6h-171l229 278h232z"/>
<glyph glyph-name="caron" horiz-adv-x="800" unicode="ˇ" d="M745 1446l-229 -278h-232l-229 278h171q15 0 28.5 -5t21.5 -12l106 -111q5 -5 10.5 -11.5t11.5 -13.5q5 7 10.5 13.5t10.5 11.5l105 111q8 6 22 11.5t28 5.5h165z"/>
<glyph glyph-name="ring" horiz-adv-x="800" unicode="˚" d="M311 1325q0 -38 23.5 -63.5t67.5 -25.5q40 0 64 25.5t24 63.5q0 42 -24 66.5t-64 24.5q-44 0 -67.5 -24.5t-23.5 -66.5zM177 1325q0 46 18 84t48.5 65t70.5 42t84 15q45 0 86 -15t72 -42t49.5 -65t18.5 -84q0 -45 -18.5 -82t-49.5 -63.5t-72 -41t-86 -14.5 q-44 0 -84 14.5t-70.5 41t-48.5 63.5t-18 82z"/>
<glyph glyph-name="tilde" horiz-adv-x="800" unicode="˜" d="M507 1359q30 0 47 16.5t17 59.5h150q0 -56 -15.5 -101.5t-42.5 -78t-64.5 -50t-82.5 -17.5q-36 0 -67 13t-58 28t-50.5 28t-43.5 13q-29 0 -45.5 -17.5t-16.5 -59.5h-153q0 56 15.5 101.5t43.5 78t65.5 50.5t81.5 18q36 0 67.5 -13t58.5 -28t50 -28t43 -13z"/>
<glyph glyph-name="Alpha" horiz-adv-x="1389" unicode="Α" d="M1400 0h-208q-35 0 -57 17.5t-33 43.5l-108 295h-599l-108 -295q-8 -23 -31 -42t-57 -19h-210l569 1446h274zM925 546l-176 481q-13 32 -27 76t-28 95q-13 -51 -27 -95.5t-27 -77.5l-175 -479h460z"/>
<glyph glyph-name="Beta" horiz-adv-x="1317" unicode="Β" d="M659 1446q142 0 243 -27t165.5 -77t94.5 -121t30 -160q0 -51 -15 -97.5t-46.5 -87t-80 -73.5t-115.5 -56q298 -67 298 -322q0 -92 -35 -170t-102 -134.5t-165 -88.5t-224 -32h-546v1446h498zM430 1238v-418h214q138 0 208.5 50t70.5 159q0 113 -64 161t-200 48h-229z M702 210q75 0 126 18t81.5 48t44 70t13.5 85q0 47 -15 84.5t-47 64t-82.5 40.5t-121.5 14h-271v-424h272z"/>
<glyph glyph-name="Gamma" horiz-adv-x="1103" unicode="Γ" d="M1073 1239h-642v-1239h-270v1446h912v-207z"/>
<glyph glyph-name="Delta" horiz-adv-x="1395" unicode="Δ" d="M1344 235q32 -79 32 -158v-77h-1358v76q0 73 32 155l513 1215h274zM295 213h779l-326 814q-14 35 -29.5 84t-29.5 106q-14 -58 -29.5 -106t-29.5 -86z"/>
<glyph glyph-name="Epsilon" horiz-adv-x="1150" unicode="Ε" d="M431 1232v-401h506v-207h-506v-409h642v-215h-912v1446h912v-214h-642z"/>
<glyph glyph-name="Zeta" horiz-adv-x="1211" unicode="Ζ" d="M1157 1347q0 -46 -26 -84l-742 -1048h751v-215h-1100v106q0 20 7 38.5t18 34.5l744 1053h-722v214h1070v-99z"/>
<glyph glyph-name="Eta" horiz-adv-x="1541" unicode="Η" d="M1380 1446v-1446h-270v632h-679v-632h-270v1446h270v-622h679v622h270z"/>
<glyph glyph-name="Theta" horiz-adv-x="1616" unicode="Θ" d="M1265 723q0 119 -32 213.5t-91 160.5t-143.5 101t-190.5 35t-190.5 -35t-144 -101t-91.5 -160.5t-32 -213.5t32 -213.5t91.5 -160t144 -100.5t190.5 -35t190.5 35t143.5 100.5t91 160t32 213.5zM1540 723q0 -159 -52.5 -294.5t-148.5 -234.5t-231 -154.5t-300 -55.5 q-164 0 -299 55.5t-231.5 154.5t-149.5 234.5t-53 294.5t53 294.5t149.5 234.5t231.5 154.5t299 55.5q110 0 207 -25.5t178 -72t145.5 -113t109.5 -148.5t68.5 -178t23.5 -202zM540 834h534v-215h-534v215z"/>
<glyph glyph-name="Iota" horiz-adv-x="593" unicode="Ι" d="M431 0h-270v1446h270v-1446z"/>
<glyph glyph-name="Kappa" horiz-adv-x="1371" unicode="Κ" d="M1388 0h-237q-48 0 -71.5 13.5t-39.5 39.5l-409 534q-19 27 -44 38t-72 11h-85v-636h-269v1446h269v-606h63q38 0 63 10.5t43 33.5l399 505q25 32 52.5 44.5t69.5 12.5h232l-487 -601q-43 -55 -89 -78q33 -12 60 -33.5t50 -56.5z"/>
<glyph glyph-name="Lambda" horiz-adv-x="1386" unicode="Λ" d="M1398 0h-232q-35 0 -57 17.5t-33 43.5l-340 883q-17 43 -33 94.5t-30 108.5q-23 -115 -57 -203l-339 -883q-8 -23 -31.5 -42t-57.5 -19h-201l584 1446h243z"/>
<glyph glyph-name="Mu" horiz-adv-x="1890" unicode="Μ" d="M1729 1446v-1446h-237v934q0 56 6 121l-437 -821q-31 -59 -95 -59h-38q-64 0 -95 59l-442 824q3 -33 5 -65t2 -59v-934h-237v1446h203q18 0 31 -1t23.5 -5t19 -13t16.5 -24l433 -803q17 -32 31.5 -66t28.5 -70q14 37 29 71.5t32 66.5l427 801q8 15 17 24t19.5 13t23.5 5 t31 1h203z"/>
<glyph glyph-name="Nu" horiz-adv-x="1541" unicode="Ν" d="M1380 1446v-1446h-138q-32 0 -53.5 10.5t-41.5 35.5l-755 964q6 -66 6 -122v-888h-237v1446h141q17 0 29.5 -1.5t22 -6t18.5 -13t20 -22.5l758 -968q-3 35 -5 69t-2 63v879h237z"/>
<glyph glyph-name="Xi" horiz-adv-x="1245" unicode="Ξ" d="M324 841h598v-230h-598v230zM1173 222v-222h-1097v222h1097zM1173 1446v-222h-1097v222h1097z"/>
<glyph glyph-name="Omicron" horiz-adv-x="1616" unicode="Ο" d="M1265 723q0 119 -32 213.5t-91 160.5t-143.5 101t-190.5 35t-190.5 -35t-144 -101t-91.5 -160.5t-32 -213.5t32 -213.5t91.5 -160t144 -100.5t190.5 -35t190.5 35t143.5 100.5t91 160t32 213.5zM1540 723q0 -159 -52.5 -294.5t-148.5 -234.5t-231 -154.5t-300 -55.5 q-164 0 -299 55.5t-231.5 154.5t-149.5 234.5t-53 294.5t53 294.5t149.5 234.5t231.5 154.5t299 55.5q110 0 207 -25.5t178 -72t145.5 -113t109.5 -148.5t68.5 -178t23.5 -202z"/>
<glyph glyph-name="Pi" horiz-adv-x="1541" unicode="Π" d="M1380 0h-270v1239h-679v-1239h-270v1446h1219v-1446z"/>
<glyph glyph-name="Rho" horiz-adv-x="1238" unicode="Ρ" d="M631 1446q145 0 251 -34t175 -95t102.5 -146t33.5 -186q0 -105 -35 -192.5t-105 -150.5t-175.5 -98t-246.5 -35h-201v-509h-269v1446h470zM631 719q74 0 129 18.5t91.5 53t54.5 84t18 110.5q0 58 -18 105t-54 80t-91 50.5t-130 17.5h-201v-519h201z"/>
<glyph glyph-name="Sigma" horiz-adv-x="1225" unicode="Σ" d="M537 1239q-55 0 -99 4t-87 12q48 -25 86.5 -53.5t70.5 -63.5l215 -265q22 -25 35.5 -43.5t21 -33t10 -26.5t2.5 -24q0 -14 -2 -28t-9.5 -30.5t-21.5 -36.5t-36 -45l-266 -318q-32 -37 -54 -57.5t-45 -34.5q43 6 79.5 8.5t67.5 2.5h652v-207h-1097v100q0 29 14.5 58.5 t34.5 51.5l445 512l-463 534q-13 15 -22 35t-9 40v115h1097v-207h-620z"/>
<glyph glyph-name="Tau" horiz-adv-x="1200" unicode="Τ" d="M1171 1225h-436v-1225h-269v1225h-436v221h1141v-221z"/>
<glyph glyph-name="Upsilon" horiz-adv-x="1296" unicode="Υ" d="M782 560v-560h-268v560l-527 886h237q35 0 55.5 -17t34.5 -43l264 -483q23 -43 40.5 -81t31.5 -76q13 38 30 76t39 81l263 483q11 22 33 41t56 19h238z"/>
<glyph glyph-name="Phi" horiz-adv-x="1704" unicode="Φ" d="M980 1371q153 -2 276.5 -53t210.5 -139t134 -204.5t47 -248.5q0 -88 -21 -170t-61 -153.5t-98.5 -130.5t-132.5 -101.5t-163.5 -66t-191.5 -24.5v-192h-255v192q-154 1 -277.5 52.5t-210.5 139t-133.5 204.5t-46.5 250q0 132 47 248.5t134 204.5t210.5 139t276.5 53v188 h255v-188zM725 1164q-93 -2 -168.5 -37t-128.5 -94.5t-82 -138t-29 -168.5t29 -169.5t82 -138.5t128.5 -94t168.5 -37v877zM980 287q93 2 168 37t128 94t82 138.5t29 169.5t-29 168.5t-82 138t-128 94.5t-168 37v-877z"/>
<glyph glyph-name="Chi" horiz-adv-x="1341" unicode="Χ" d="M1336 0h-268q-28 0 -44.5 14t-26.5 32l-335 555q-8 -25 -19 -43l-321 -512q-12 -17 -27.5 -31.5t-40.5 -14.5h-251l480 744l-461 702h268q28 0 40.5 -7.5t23.5 -24.5l329 -530q10 25 24 50l302 475q11 19 24 28t33 9h257l-465 -691z"/>
<glyph glyph-name="Psi" horiz-adv-x="1666" unicode="Ψ" d="M1579 1446v-519q0 -128 -39 -231.5t-116 -178.5t-192 -119t-266 -51v-347h-270v347q-151 8 -265 52t-190.5 119t-115.5 178.5t-39 230.5v519h180q43 0 66.5 -26t23.5 -64v-429q0 -84 17.5 -149.5t57.5 -111t105 -72t160 -32.5v884h270v-884q96 6 161.5 32t106 71.5 t58 111t17.5 150.5v429q0 38 23.5 64t66.5 26h180z"/>
<glyph glyph-name="alpha" horiz-adv-x="1205" unicode="α" d="M1199 172v-98q0 -16 -10.5 -31t-30.5 -27t-49 -19t-65 -7q-38 0 -73.5 10t-66 30.5t-55 51.5t-40.5 74q-34 -47 -74.5 -79.5t-83.5 -53t-87.5 -29.5t-86.5 -9q-87 0 -162 35t-130 100.5t-86.5 159.5t-31.5 212q0 125 35 227t96.5 174.5t145.5 112t182 39.5 q97 0 172.5 -36.5t126.5 -93.5l15 66q15 45 62 45h151l-52 -530q-2 -48 -6 -95.5t-4 -90.5q0 -36 11 -62t29.5 -43t43 -25t51.5 -8h73zM789 718q-14 27 -35 52.5t-49 44.5t-62 30.5t-73 11.5q-48 0 -93 -20t-79.5 -63t-55 -111t-20.5 -164q0 -87 17.5 -148t47.5 -98.5 t69 -54.5t83 -17q43 0 81 16t67.5 51t49.5 90.5t28 133.5z"/>
<glyph glyph-name="beta" horiz-adv-x="1136" unicode="β" d="M121 924q0 124 27 223.5t82.5 169.5t140.5 107t201 37q109 0 187 -31.5t128 -82.5t73.5 -116t23.5 -132q0 -106 -51 -185.5t-150 -117.5q69 -19 123.5 -54t91.5 -82.5t56.5 -107t19.5 -126.5q0 -88 -32 -168t-91.5 -140.5t-142.5 -96.5t-185 -36q-159 0 -255 96v-428 h-247v1271zM368 273q37 -52 82 -75.5t111 -23.5q67 0 117 22t82 59.5t48 88.5t16 108q0 74 -22.5 121t-59 73.5t-83.5 36.5t-96 10h-62v193h32q52 0 93 10t68.5 32.5t42 59t14.5 89.5q0 106 -49 155.5t-134 49.5q-53 0 -91 -20t-62 -63.5t-35.5 -113t-11.5 -169.5v-643z"/>
<glyph glyph-name="gamma" horiz-adv-x="1118" unicode="γ" d="M1105 1026q-25 -113 -68.5 -233t-99 -239.5t-120.5 -234t-133 -216.5v-438h-247v436q-16 89 -36 179.5t-45 174.5t-54.5 156.5t-64.5 126.5t-76 85t-88 31h-38v90q0 19 5 35.5t18.5 29t37.5 19.5t61 7q99 0 174.5 -51t130.5 -144t91 -224.5t57 -291.5q39 71 72 150 t59.5 160t46.5 161.5t34 154.5q8 44 28 60t45 16h210z"/>
<glyph glyph-name="delta" horiz-adv-x="1118" unicode="δ" d="M921 1264q-5 -32 -19.5 -42t-44.5 -10q-17 0 -52 8t-78.5 18t-90.5 18t-87 8q-66 0 -93.5 -19.5t-27.5 -48.5q0 -30 27 -56t71 -53t100 -57.5t115 -67.5t115 -83.5t100 -106.5t71 -136t27 -171q0 -104 -33.5 -191.5t-97 -151.5t-155.5 -99.5t-208 -35.5q-117 0 -209 36 t-156 99.5t-98 151.5t-34 192q0 161 82.5 276t252.5 181q-42 25 -79 52t-64 59.5t-43 72t-16 89.5q0 57 22.5 104.5t68 82t115 54t164.5 19.5q38 0 86 -3t98 -8.5t99.5 -13t90.5 -16.5zM560 173q55 0 100.5 19.5t78.5 56.5t51 90t18 120q0 72 -20.5 127.5t-54.5 99.5 t-79 78.5t-94 64.5q-47 -19 -91 -48.5t-77.5 -72.5t-53.5 -100.5t-20 -133.5q0 -62 14.5 -116.5t44.5 -95.5t75.5 -65t107.5 -24z"/>
<glyph glyph-name="epsilon" horiz-adv-x="914" unicode="ε" d="M879 153q-41 -48 -89.5 -80t-99.5 -51t-102 -27t-96 -8q-84 0 -160 21t-134.5 60.5t-93 97.5t-34.5 133q0 84 47.5 143t124.5 93q-41 19 -70 45t-47 55.5t-26.5 61t-8.5 62.5q0 57 26.5 108.5t79 90t130 61.5t180.5 23q118 0 203 -35t144 -92l-56 -95q-14 -22 -26 -28.5 t-29 -6.5q-16 0 -34 11t-44.5 23.5t-63.5 23.5t-90 11q-89 0 -134.5 -33t-45.5 -85q0 -55 52 -89t149 -34h165v-161h-165q-111 0 -160.5 -35t-49.5 -97q0 -32 12.5 -58.5t36 -46.5t58 -31t78.5 -11q60 0 98.5 14.5t66 32t48.5 32t44 14.5q30 0 45 -23z"/>
<glyph glyph-name="zeta" horiz-adv-x="809" unicode="ζ" d="M829 1344q3 -13 -0.5 -27.5t-16 -34.5t-37 -47.5t-64.5 -66.5q-38 -37 -83.5 -81.5t-90.5 -95t-87.5 -107t-75.5 -118t-52.5 -127.5t-19.5 -135q0 -58 15 -99.5t45.5 -72.5t77 -54t109.5 -43q90 -29 147 -60.5t89.5 -66.5t44.5 -74.5t12 -83.5q0 -69 -23 -137t-67 -138 l-192 74q9 14 18.5 32t17.5 37.5t13 40t5 38.5t-7 35t-28 35t-59 36t-99 37q-87 27 -153.5 63t-111.5 85t-68 113.5t-23 150.5q0 110 36.5 212.5t102 202t155 198t195.5 200.5q-102 -18 -220 -18h-116q-28 0 -47.5 7.5t-31.5 19t-17.5 25.5t-5.5 28v119h690z"/>
<glyph glyph-name="eta" horiz-adv-x="1186" unicode="η" d="M18 953q0 16 6.5 31t21.5 27t38.5 19t58.5 7q81 0 143.5 -36t92.5 -111q34 34 73 62t82.5 48t91.5 31t102 11q84 0 149 -28.5t108.5 -80t66 -123t22.5 -157.5v-988h-247v988q0 94 -43 145.5t-130 51.5q-65 0 -121 -29t-105 -79v-742h-248v724q0 67 -29 99t-84 32h-49v98z "/>
<glyph glyph-name="theta" horiz-adv-x="1205" unicode="θ" d="M604 1463q115 0 208.5 -47t160 -140t102.5 -231t36 -319q0 -182 -36 -320.5t-102.5 -232t-160 -141t-208.5 -47.5t-209 47.5t-161 141t-103.5 232t-36.5 320.5q0 181 36.5 319t103.5 231t161 140t209 47zM869 822q-6 119 -26.5 204.5t-54 140.5t-80 81t-104.5 26 q-59 0 -106 -26t-81 -81t-54.5 -140.5t-26.5 -204.5h533zM335 654q4 -126 24 -216.5t54 -148t82 -85t109 -27.5q60 0 107.5 27.5t81 85t53.5 148t24 216.5h-535z"/>
<glyph glyph-name="iota" horiz-adv-x="560" unicode="ι" d="M115 1026h247v-722q0 -66 27 -100t90 -34h93v-75q0 -26 -16.5 -45.5t-43.5 -33t-61.5 -20.5t-69.5 -7q-66 0 -115.5 22.5t-83 63t-50.5 95.5t-17 120v736z"/>
<glyph glyph-name="kappa" horiz-adv-x="1070" unicode="κ" d="M369 1026v-391h46q25 0 39.5 6.5t29.5 26.5l255 315q16 21 35.5 32t50.5 11h226l-319 -381q-34 -45 -74 -69q21 -15 37.5 -35t31.5 -43l342 -498h-223q-29 0 -50 9.5t-35 34.5l-262 389q-14 23 -29 30t-45 7h-56v-470h-247v1026h247z"/>
<glyph glyph-name="lambda" horiz-adv-x="1099" unicode="λ" d="M1101 170v-98q0 -26 -8 -42.5t-22.5 -25.5t-35.5 -12.5t-47 -3.5q-44 0 -87 9t-82 32.5t-71.5 64t-54.5 104.5l-133 355q-10 26 -15.5 48t-8.5 42q-6 -21 -13 -42.5t-16 -44.5l-199 -510q-8 -18 -25 -32t-47 -14h-212l395 923l-87 253q-11 31 -23 50.5t-29 31t-40.5 16 t-56.5 4.5h-77v91q0 19 6.5 35.5t23 28.5t43.5 19t68 7q42 0 85 -8t82 -29.5t71.5 -58.5t53.5 -95l366 -1000q17 -51 46.5 -74.5t87.5 -23.5h62z"/>
<glyph glyph-name="mu" horiz-adv-x="1209" unicode="μ" d="M1210 171v-98q0 -16 -10.5 -31t-31 -26.5t-49 -18.5t-64.5 -7q-42 0 -81 12t-71.5 36.5t-57.5 62.5t-38 89q-54 -84 -123 -129.5t-157 -45.5q-60 0 -107 16t-83 47q10 -43 13.5 -88.5t3.5 -84.5v-240h-123q-52 0 -80.5 26.5t-28.5 76.5v1258h247v-606q0 -93 44 -149 t130 -56q80 0 136.5 44t90.5 124v643h247v-723q0 -68 32 -100t88 -32h73z"/>
<glyph glyph-name="nu" horiz-adv-x="1044" unicode="ν" d="M1030 1026q-29 -130 -75.5 -267t-106.5 -270.5t-131 -258.5t-149 -230h-153l-407 1026h204q28 0 46.5 -13t24.5 -33l198 -548q14 -44 25.5 -86.5t20.5 -84.5q44 74 78.5 160.5t61 177.5t46.5 182t36 175q5 39 25.5 54.5t45.5 15.5h210z"/>
<glyph glyph-name="xi" horiz-adv-x="809" unicode="ξ" d="M803 1344q0 -22 -8.5 -39t-22 -29t-31 -18.5t-35.5 -6.5h-93q-58 0 -105.5 -17t-81.5 -47.5t-52.5 -73t-18.5 -93.5q0 -85 65 -125.5t186 -40.5h100v-192h-153q-63 0 -108.5 -15t-75 -42t-43.5 -65t-14 -84t16 -80t51 -62t90.5 -53t134.5 -54q60 -22 100.5 -48t66 -56.5 t36.5 -66t11 -76.5q0 -76 -23 -145.5t-68 -139.5l-191 74q9 14 18 32t17 37.5t13 38.5t5 36q0 20 -5.5 37.5t-19.5 33t-38 28t-61 23.5q-78 22 -150 54.5t-127 82t-88 118t-33 163.5q0 42 10.5 89.5t34.5 92.5t64.5 85t100.5 69q-73 36 -111.5 94t-38.5 139q0 44 14 82.5 t38.5 71t57.5 59t71 47.5h-125q-56 0 -78.5 25.5t-22.5 68.5v90h721v-102z"/>
<glyph glyph-name="omicron" horiz-adv-x="1149" unicode="ο" d="M576 175q128 0 189.5 86t61.5 252t-61.5 253t-189.5 87q-130 0 -192.5 -87.5t-62.5 -252.5t62.5 -251.5t192.5 -86.5zM576 1042q114 0 207.5 -37t160 -105t102.5 -166t36 -219q0 -122 -36 -220t-102.5 -167t-160 -106t-207.5 -37q-115 0 -209 37t-160.5 106t-103 167 t-36.5 220q0 121 36.5 219t103 166t160.5 105t209 37z"/>
<glyph glyph-name="pi" horiz-adv-x="1263" unicode="π" d="M1207 906q0 -32 -19.5 -54t-57.5 -22h-127v-63q0 -135 3.5 -232t10.5 -163t18 -105.5t25.5 -60.5t32.5 -27.5t40 -6.5h45v-98q0 -20 -12 -35t-33 -25.5t-48.5 -16t-58.5 -5.5q-133 0 -196 89t-63 261q0 45 4.5 94t11 107.5t13 128.5t10.5 158h-316q-4 -172 -15.5 -301.5 t-30.5 -222.5t-45.5 -154t-59.5 -97t-73 -50t-87 -14q-15 0 -32.5 2.5t-32.5 8.5t-25 15t-10 21v165h21q32 0 61 33.5t52.5 108t39.5 194t22 291.5h-207v104q0 14 6 29.5t18 28.5t29.5 21.5t39.5 8.5h1046v-116z"/>
<glyph glyph-name="rho" horiz-adv-x="1139" unicode="ρ" d="M109 581q0 105 31.5 190.5t92 145.5t149.5 93t203 33q99 0 187.5 -35.5t155 -103t105.5 -164t39 -219.5q0 -115 -31 -213t-88.5 -170t-139 -112.5t-182.5 -40.5q-82 0 -151.5 27.5t-123.5 75.5v-423h-247v916zM356 283q45 -59 102.5 -84.5t115.5 -25.5q56 0 101 21t77 64 t49 108.5t17 154.5q0 90 -17 152.5t-48 101.5t-73.5 57t-94.5 18q-47 0 -89 -17.5t-73 -51.5t-49 -84.5t-18 -115.5v-298z"/>
<glyph glyph-name="sigma1" horiz-adv-x="944" unicode="ς" d="M856 809q-11 -14 -21.5 -22t-30.5 -8q-19 0 -37 11.5t-43 26t-59.5 26t-85.5 11.5q-65 0 -114 -22.5t-81.5 -61.5t-48.5 -91.5t-16 -112.5q0 -89 20.5 -144.5t63.5 -93t109 -64t156 -57.5q60 -22 101 -47.5t66.5 -56t36.5 -66t11 -77.5q0 -76 -23 -145.5t-68 -139.5 l-192 74q9 15 18.5 33t17.5 37t13 38.5t5 36.5q0 19 -5.5 36.5t-20 33t-38.5 28t-60 23.5q-62 19 -121 40.5t-110.5 50.5t-94.5 68t-74 92.5t-48 123.5t-17 161q0 99 32.5 188.5t96 156.5t156.5 106.5t214 39.5q115 0 201.5 -37t155.5 -106z"/>
<glyph glyph-name="sigma" horiz-adv-x="1230" unicode="σ" d="M1239 1024v-117q0 -11 -5.5 -23.5t-15.5 -23t-24.5 -17t-32.5 -6.5h-216q63 -55 99 -139.5t36 -199.5q0 -112 -35.5 -206t-101.5 -162.5t-159.5 -106.5t-208.5 -38q-114 0 -207.5 35.5t-160.5 102t-104 162t-37 215.5q0 123 40.5 220.5t116.5 165t184.5 103t245.5 35.5 h586zM651 837q-174 0 -252 -85t-78 -257q0 -320 253 -320q129 0 190.5 83t61.5 251q0 53 -7 105t-22.5 96.5t-39.5 77.5t-57 49h-49z"/>
<glyph glyph-name="tau" horiz-adv-x="955" unicode="τ" d="M933 925q0 -43 -22 -65t-63 -22h-284v-532q0 -66 27 -100t90 -34h92v-75q0 -26 -16.5 -45.5t-43.5 -33t-61.5 -20.5t-69.5 -7q-65 0 -115 22.5t-83.5 63t-50.5 95.5t-17 120v546h-299v105q0 31 20.5 55t62.5 24h833v-97z"/>
<glyph glyph-name="upsilon" horiz-adv-x="1119" unicode="υ" d="M973 1026q10 -63 19.5 -122.5t16.5 -117.5t11.5 -117.5t4.5 -122.5q0 -147 -41 -253.5t-109 -175t-156.5 -101t-182.5 -32.5q-102 0 -181 27.5t-133 78t-82.5 122.5t-28.5 162v652h247v-652q0 -47 14 -83.5t39.5 -61.5t61.5 -38.5t79 -13.5q42 0 84 17t75 59.5t54 113.5 t21 179q0 51 -5.5 100.5t-13.5 99t-17 99.5t-15 101q-2 22 4 37.5t16 25t23 13.5t25 4h170z"/>
<glyph glyph-name="phi" horiz-adv-x="1546" unicode="φ" d="M652 700q0 91 24.5 155.5t70.5 106t111.5 61t146.5 19.5q106 0 194 -38.5t150.5 -106t97 -159t34.5 -197.5q0 -128 -44 -230t-123 -174t-188.5 -111.5t-241.5 -40.5v-320h-232v320q-131 2 -239 41t-185.5 108.5t-120.5 166.5t-43 214q0 91 27 171t76.5 146.5t118.5 118 t153 85.5l65 -99q9 -14 10 -30t-3.5 -30t-13 -25.5t-18.5 -15.5q-78 -45 -123 -128t-45 -195q0 -78 23 -141t67 -108t107.5 -70t143.5 -27v533zM884 167q169 3 259.5 99.5t90.5 274.5q0 74 -20.5 133t-53.5 100.5t-74 63.5t-81 22q-55 0 -88 -35.5t-33 -124.5v-533z"/>
<glyph glyph-name="chi" horiz-adv-x="986" unicode="χ" d="M1002 -172v-98q0 -26 -4.5 -42t-15 -25t-29 -12.5t-45.5 -3.5q-48 0 -91 8t-80.5 31t-69.5 63.5t-59 106.5l-145 334q-4 -32 -11 -62.5t-15 -53.5l-171 -361q-7 -19 -23.5 -32.5t-45.5 -13.5h-178l334 717l-161 372q-14 30 -28 50t-31.5 31.5t-40.5 16.5t-56 5h-38v90 q0 19 1 35.5t9 29t28 19.5t59 7q55 0 101 -10t83.5 -32.5t67 -59.5t52.5 -90l145 -332q4 32 10.5 61t14.5 52l162 352q7 19 23.5 32.5t45.5 13.5h178l-327 -701l174 -400q11 -24 23 -42.5t28 -31t37 -18.5t50 -6h39z"/>
<glyph glyph-name="psi" horiz-adv-x="1580" unicode="ψ" d="M1433 1026q12 -63 22 -122.5t16.5 -117.5t10.5 -117.5t4 -122.5q0 -148 -45 -249.5t-122 -166.5t-181.5 -97.5t-222.5 -42.5v-325h-247v323q-146 11 -252 51t-174.5 105.5t-101.5 155t-33 199.5v527h171q15 0 29 -9t24.5 -23t16.5 -30t6 -31v-434q0 -139 82.5 -216 t231.5 -98v1261h247v-1263q75 8 135 30.5t102 65t64.5 107.5t22.5 160q0 78 -7 134t-16 100t-17.5 83t-11.5 83q0 22 5.5 37.5t15.5 25t22.5 13.5t24.5 4h178z"/>
<glyph glyph-name="theta1" horiz-adv-x="1295" unicode="ϑ" d="M1289 1026v-97q0 -31 -19 -55t-61 -24h-79q2 -27 3 -55.5t1 -58.5q0 -171 -32.5 -310t-97.5 -237.5t-164.5 -151.5t-232.5 -53q-104 0 -182.5 31t-131 88.5t-78.5 139.5t-26 183v175q0 53 -16.5 79.5t-66.5 26.5h-72v98q0 32 41 57.5t116 25.5q51 0 96 -14.5t78 -48 t52 -88.5t19 -136v-175q0 -117 48 -183t145 -66q60 0 110.5 29.5t86.5 96t56 173t20 260.5q0 58 -3 114q-142 2 -253 23.5t-187 62.5t-116 102t-40 142q0 60 22.5 111t65.5 88.5t104.5 58.5t138.5 21q183 0 303.5 -107.5t168.5 -325.5h183zM529 1172q0 -73 81.5 -107 t264.5 -38q-13 58 -32.5 105t-47.5 80.5t-63.5 51.5t-79.5 18q-60 0 -91.5 -29.5t-31.5 -80.5z"/>
<glyph glyph-name="Upsilon1" horiz-adv-x="1314" unicode="ϒ" d="M25 1406q0 25 33 38t105 13q78 0 152 -25t139 -89.5t117.5 -176t86.5 -283.5q33 172 85.5 283.5t117.5 176t139 89.5t152 25q72 0 105 -13t33 -38v-168h-77q-51 0 -101.5 -16.5t-97.5 -55.5t-87.5 -102.5t-70.5 -158.5t-47 -223t-17 -296v-386h-269v386q0 168 -17 296 t-47 223t-70.5 158.5t-87.5 102.5t-98 55.5t-101 16.5h-77v168z"/>
<glyph glyph-name="omega1" horiz-adv-x="1800" unicode="ϖ" d="M1785 1022v-116q0 -32 -19.5 -54t-57.5 -22h-147q26 -76 43 -153t17 -152q0 -118 -29 -217t-82.5 -171t-129.5 -112.5t-170 -40.5q-58 0 -105.5 13t-86 35.5t-68 54t-51.5 67.5q-23 -36 -53 -67.5t-68 -54t-85 -35.5t-103 -13q-95 0 -171 40.5t-129.5 112.5t-82.5 171 t-29 217q0 75 17 152.5t44 152.5h-218v104q0 14 6 29.5t18 28.5t29 21.5t39 8.5h1672zM1024 448q0 -59 8.5 -109t27.5 -86t48 -56t71 -20q33 0 67.5 14.5t63 53.5t46.5 106.5t18 173.5q0 38 -5.5 79t-14.5 81t-20.5 77t-22.5 68h-823q-11 -31 -22 -68.5t-20 -77t-14.5 -80.5 t-5.5 -79q0 -106 18 -173.5t46.5 -106.5t63 -53.5t67.5 -14.5q42 0 71 20t48 56t27.5 86t8.5 109v203h247v-203h1z"/>
<glyph glyph-name="uni2002" horiz-adv-x="1000" unicode=" "/>
<glyph glyph-name="uni2003" horiz-adv-x="1500" unicode=" "/>
<glyph glyph-name="uni2009" horiz-adv-x="250" unicode=" "/>
<glyph glyph-name="afii61664" horiz-adv-x="0" unicode="‌" d="M-30 1610h60v-2000h-60v2000z"/>
<glyph glyph-name="afii301" horiz-adv-x="0" unicode="‍" d="M83 1698l115 -116l-80 -80l-88 87v-1979h-60v1975l-83 -83l-81 80l116 116l-116 116l81 80l115 -115l116 115l80 -80z"/>
<glyph glyph-name="afii299" horiz-adv-x="0" unicode="‎" d="M514 1696l-193 -193l-77 75l88 88h-302v-2056h-60v2117h360l-86 86l77 76z"/>
<glyph glyph-name="endash" d="M175 687h810v-175h-810v175z" unicode="–"/>
<glyph glyph-name="emdash" horiz-adv-x="1596" unicode="—" d="M119 687h1357v-175h-1357v175z"/>
<glyph glyph-name="quoteleft" horiz-adv-x="441" unicode="‘" d="M158 929q-48 79 -65 165q-9 47 -9 93q0 38 6 76q14 83 58.5 159.5t119.5 137.5l77 -47q18 -12 18 -29q0 -20 -13 -33q-21 -25 -40 -66q-18 -41 -26 -92q-3 -23 -4 -48q0 -30 5 -61q9 -58 45 -116q18 -29 10 -50.5t-33 -30.5z"/>
<glyph glyph-name="quotesinglbase" horiz-adv-x="436" unicode="‚" d="M271 302q48 -78 65 -164q9 -47 9 -94q0 -38 -6 -76q-14 -84 -58.5 -160t-119.5 -137l-78 47q-10 6 -14 14t-4 16q1 9 5 18q4 8 9 14q21 25 40 66t27 92q3 22 3 46q1 30 -5 63q-10 58 -46 116q-17 29 -9.5 50.5t32.5 30.5z"/>
<glyph glyph-name="quotedblleft" horiz-adv-x="773" unicode="“" d="M158 929q-48 79 -65 165q-9 47 -9 93q0 38 6 76q14 83 58.5 159.5t119.5 137.5l77 -47q18 -12 18 -29q0 -20 -13 -33q-21 -25 -40 -66q-18 -41 -26 -92q-3 -23 -4 -48q0 -30 5 -61q9 -58 45 -116q18 -29 10 -50.5t-33 -30.5zM490 929q-48 79 -65 165q-9 47 -9 93 q0 38 6 76q14 83 58.5 159.5t119.5 137.5l77 -47q18 -12 18 -29q0 -20 -13 -33q-21 -25 -40 -66q-18 -41 -26 -92q-3 -23 -4 -48q0 -30 5 -61q9 -58 45 -116q18 -29 10 -50.5t-33 -30.5z"/>
<glyph glyph-name="quotedblright" horiz-adv-x="773" unicode="”" d="M290 1543q48 -78 65 -164q9 -47 9 -94q0 -38 -6 -76q-14 -84 -58.5 -160t-119.5 -137l-78 47q-10 6 -14 14t-4 16q1 9 5 18q4 8 9 14q21 25 40 66t27 92q3 22 3 46q1 30 -5 63q-10 58 -46 116q-17 29 -9.5 50.5t32.5 30.5zM622 1543q48 -78 65 -164q9 -47 9 -94 q0 -38 -6 -76q-14 -84 -58.5 -160t-119.5 -137l-78 47q-10 6 -14 14t-4 16q1 9 5 18q4 8 9 14q21 25 40 66t27 92q3 22 3 46q1 30 -5 63q-10 58 -46 116q-17 29 -9.5 50.5t32.5 30.5z"/>
<glyph glyph-name="dagger" d="M676 831v-354l32 -800q-26 -16 -59 -24t-69 -8t-69 8t-59 24l32 800v354h-403v82q0 21 7 40t21 34t36 24t52 9q31 0 66 -5t72 -12t74.5 -14.5t74.5 -12.5l-32 489q26 16 59 24t69 8t69 -8t59 -24l-32 -489q37 5 74.5 12.5t74.5 14.5t71.5 12t66.5 5q30 0 52 -9t36 -24 t21 -34t7 -40v-82h-403z" unicode="†"/>
<glyph glyph-name="daggerdbl" d="M676 311h403v-82q0 -21 -7 -40t-21 -34t-36 -24t-52 -9q-32 0 -66.5 5t-71.5 12t-74.5 14.5t-74.5 12.5l32 -489q-26 -16 -59 -24t-69 -8t-69 8t-59 24l32 489q-37 -5 -74.5 -12.5t-74.5 -14.5t-72 -12t-66 -5q-30 0 -52 9t-36 24t-21 34t-7 40v82h403v520h-403v82 q0 21 7 40t21 34t36 24t52 9q31 0 66 -5t72 -12t74.5 -14.5t74.5 -12.5l-32 489q26 16 59 24t69 8t69 -8t59 -24l-32 -489q37 5 74.5 12.5t74.5 14.5t71.5 12t66.5 5q30 0 52 -9t36 -24t21 -34t7 -40v-82h-403v-520z" unicode="‡"/>
<glyph glyph-name="ellipsis" horiz-adv-x="1543" unicode="…" d="M86 136q0 31 11.5 59t31.5 48t48 32t60 12t59.5 -12t48 -32t32.5 -48t12 -59q0 -32 -12 -59.5t-32.5 -47.5t-48 -31.5t-59.5 -11.5t-60 11.5t-48 31.5t-31.5 47.5t-11.5 59.5zM1154 136q0 31 11.5 59t31.5 48t48 32t60 12t59.5 -12t48 -32t32.5 -48t12 -59 q0 -32 -12 -59.5t-32.5 -47.5t-48 -31.5t-59.5 -11.5t-60 11.5t-48 31.5t-31.5 47.5t-11.5 59.5zM620 136q0 31 11.5 59t31.5 48t48 32t60 12t59.5 -12t48 -32t32.5 -48t12 -59q0 -32 -12 -59.5t-32.5 -47.5t-48 -31.5t-59.5 -11.5t-60 11.5t-48 31.5t-31.5 47.5t-11.5 59.5 z"/>
<glyph glyph-name="perthousand" horiz-adv-x="2372" unicode="‰" d="M2112 340q0 58 -11 97t-30.5 63t-46 34.5t-56.5 10.5t-56 -10.5t-45 -34.5t-29.5 -63t-10.5 -97q0 -56 10.5 -94t29.5 -61t45 -33t56 -10t56.5 10t46 33t30.5 61t11 94zM2302 340q0 -82 -27.5 -148t-73.5 -112.5t-106.5 -72t-126.5 -25.5q-72 0 -133 25.5t-105.5 72 t-69.5 112.5t-25 148q0 84 25 152t69.5 115t105.5 72.5t133 25.5t133 -25.5t106 -72.5t70 -115t25 -152zM1371 340q0 58 -11 97t-30.5 63t-46 34.5t-56.5 10.5t-56 -10.5t-45 -34.5t-29.5 -63t-10.5 -97q0 -56 10.5 -94t29.5 -61t45 -33t56 -10t56.5 10t46 33t30.5 61t11 94 zM1562 340q0 -82 -27.5 -148t-73.5 -112.5t-107 -72t-127 -25.5q-72 0 -133 25.5t-105.5 72t-69.5 112.5t-25 148q0 84 25 152t69.5 115t105.5 72.5t133 25.5t133.5 -25.5t106 -72.5t70 -115t25.5 -152zM1226 1407q13 15 30.5 27t49.5 12h180l-1074 -1409q-13 -16 -31 -26.5 t-44 -10.5h-184zM555 1096q0 58 -11.5 97t-31 63t-46 34.5t-56.5 10.5t-56 -10.5t-44.5 -34.5t-29.5 -63t-11 -97q0 -56 11 -93.5t29.5 -60.5t44.5 -33t56 -10t56.5 10t46 33t31 60.5t11.5 93.5zM745 1096q0 -82 -27.5 -148t-73.5 -112.5t-107 -71.5t-127 -25q-72 0 -133 25 t-105.5 71.5t-69.5 112.5t-25 148q0 84 25 152t69.5 115t105.5 72.5t133 25.5t133.5 -25.5t106.5 -72.5t70 -115t25 -152z"/>
<glyph glyph-name="guilsinglleft" horiz-adv-x="581" unicode="‹" d="M452 260q13 -23 13 -44q0 -6 -1 -12q-5 -26 -37 -40l-81 -38l-256 396v32l256 396l81 -38q32 -14 37 -40q1 -6 1 -13q0 -21 -13 -44l-138 -235q-14 -26 -32 -42q18 -16 32 -42z"/>
<glyph glyph-name="guilsinglright" horiz-adv-x="582" unicode="›" d="M492 554v-32l-256 -396l-81 38q-31 14 -37 40q-1 6 -2 13q0 20 13 43l139 236q14 26 32 42q-18 16 -32 42l-139 235q-13 23 -13 43q0 8 2 14q6 26 37 40l81 38z"/>
<glyph glyph-name="uni203E" horiz-adv-x="1337" unicode="‾" d="M59 1715h1220v-183h-1220v183z"/>
<glyph glyph-name="fraction" horiz-adv-x="280" unicode="⁄" d="M-166 71q-26 -41 -55.5 -56t-68.5 -15h-105l834 1365q24 38 54.5 59.5t74.5 21.5h106z"/>
<glyph glyph-name="Euro" d="M26 928h133q23 122 73 220.5t122 167.5t163 106.5t198 37.5q139 0 238 -53.5t166 -144.5l-87 -94q-10 -11 -21 -19.5t-31 -8.5q-14 0 -25.5 8t-25.5 20t-31 26t-40.5 26t-55.5 20t-76 8q-118 0 -199 -81t-113 -239h502v-76q0 -23 -18.5 -42.5t-50.5 -19.5h-450 q-1 -17 -1 -33.5v-33.5v-24t1 -23h424v-75q0 -23 -19 -42.5t-50 -19.5h-343q28 -172 107.5 -256.5t197.5 -84.5q72 0 115.5 19.5t71 43.5t46 43.5t40.5 19.5q11 0 19 -3.5t17 -13.5l107 -98q-70 -108 -178 -165.5t-251 -57.5q-118 0 -211.5 39.5t-162.5 111.5t-112.5 174 t-61.5 228h-127v137h116q-1 11 -1 23v24v33.5t1 33.5h-116v138z" unicode="€"/>
<glyph glyph-name="trademark" horiz-adv-x="1513" unicode="™" d="M1375 1446v-603h-150v302l11 96l-152 -299q-19 -37 -59 -37h-24q-41 0 -58 37l-152 300l11 -97v-302h-150v603h147q22 0 32 -4.5t24 -21.5l130 -255q17 -37 27 -70q5 17 12 35t16 35l133 255q14 17 24 21.5t31 4.5h147zM82 1446h498v-140h-164v-463h-171v463h-163v140z "/>
<glyph glyph-name="arrowleft" horiz-adv-x="2000" unicode="←" d="M96 647l586 585l86 -88q26 -26 21 -52.5t-29 -49.5l-208 -211q-29 -29 -54.5 -51.5t-48.5 -41.5q66 8 138 13.5t145 5.5h1159v-221h-1159q-74 0 -147 5t-139 14q24 -19 50.5 -42t55.5 -51l209 -212q25 -23 29.5 -50t-21.5 -53l-86 -87z"/>
<glyph glyph-name="arrowup" horiz-adv-x="1500" unicode="↑" d="M1336 983l-88 -85q-26 -26 -53 -20.5t-51 28.5l-207 211q-29 28 -52 53.5t-42 48.5q8 -65 13.5 -137t5.5 -144v-1164h-224v1164q0 73 5.5 145t13.5 138q-19 -24 -41.5 -49.5t-51.5 -54.5l-209 -212q-23 -24 -50 -29t-53 21l-89 85l588 587z"/>
<glyph glyph-name="arrowright" horiz-adv-x="2000" unicode="→" d="M1904 645l-586 -584l-86 87q-26 26 -21 52.5t29 50.5l208 210q29 29 54.5 51.5t49.5 41.5q-66 -8 -138.5 -13t-145.5 -5h-1159v221h1159q74 0 146.5 -5.5t138.5 -13.5q-48 38 -105 93l-209 212q-25 23 -29.5 49.5t21.5 52.5l86 88z"/>
<glyph glyph-name="arrowdown" horiz-adv-x="1500" unicode="↓" d="M1336 238l-588 -586l-585 585l89 85q26 26 52.5 21t50.5 -29l208 -211q57 -55 94 -103q-8 66 -13.5 137.5t-5.5 144.5v1164h223v-1164q0 -73 -5.5 -145t-13.5 -138q19 24 41.5 49.5t51.5 54.5l209 212q23 25 50.5 29.5t53.5 -21.5z"/>
<glyph glyph-name="partialdiff" horiz-adv-x="1167" unicode="∂" d="M307 1335q40 30 80.5 53.5t84 39t92.5 24t108 8.5q93 0 171.5 -38t134.5 -109.5t87.5 -174t31.5 -232.5q0 -207 -37.5 -377t-113.5 -291t-190.5 -187t-268.5 -66q-91 0 -167.5 30t-132.5 85.5t-87.5 134.5t-31.5 177q0 117 40 217.5t109.5 174.5t165 116t206.5 42 q98 0 167.5 -34.5t116.5 -99.5q1 20 1 39.5v37.5q0 90 -17 157.5t-47.5 112.5t-74 67.5t-97.5 22.5q-38 0 -71.5 -10t-62 -22t-51 -22t-38.5 -10q-14 0 -27 8t-27 32zM516 177q54 0 103.5 22t91.5 70t74.5 124t51.5 184q-9 38 -26 73t-43.5 62t-64 43t-88.5 16 q-74 0 -128.5 -26.5t-91 -74t-54.5 -112.5t-18 -143q0 -114 51.5 -176t141.5 -62z"/>
<glyph glyph-name="product" horiz-adv-x="1410" unicode="∏" d="M1340 1239h-167v-1574h-255v1574h-426v-1574h-254v1574h-168v207h1270v-207z"/>
<glyph glyph-name="summation" horiz-adv-x="1366" unicode="∑" d="M1279 1239h-826l514 -648v-71l-514 -648h826v-207h-1208v86q0 18 6 37.5t20 36.5l595 733l-595 728q-14 17 -20 36.5t-6 37.5v86h1208v-207z"/>
<glyph glyph-name="minus" d="M137 763h886v-183h-886v183z" unicode="−"/>
<glyph glyph-name="radical" horiz-adv-x="1242" unicode="√" d="M1241 1706l-550 -1706h-208l-237 642h-121q-38 0 -65.5 22.5t-27.5 76.5v79h352q28 0 46.5 -13t24.5 -33l102 -311q14 -42 22.5 -84t13.5 -86q6 34 13.5 68.5t17.5 70.5l386 1228q7 20 25 33t43 13h163z"/>
<glyph glyph-name="infinity" horiz-adv-x="1464" unicode="∞" d="M1044 951q66 0 126 -26.5t105 -74t71.5 -113.5t26.5 -145q0 -80 -26.5 -146t-71.5 -113.5t-105 -74t-126 -26.5q-55 0 -100.5 15t-83.5 40.5t-69.5 59.5t-58.5 72q-27 -38 -58.5 -72t-69.5 -59.5t-83.5 -40.5t-100.5 -15q-66 0 -126 26.5t-105.5 74t-72 113.5t-26.5 146 q0 79 26.5 145t72 113.5t105.5 74t126 26.5q55 0 100.5 -15t83.5 -40.5t69.5 -59.5t58.5 -72q27 38 58.5 72t69.5 59.5t83.5 40.5t100.5 15zM430 431q30 0 56.5 12.5t49.5 34t44.5 51t42.5 63.5q-21 33 -42.5 62.5t-44.5 51t-49.5 34t-56.5 12.5q-29 0 -55.5 -9t-46.5 -28.5 t-32 -50t-12 -72.5q0 -43 12 -73.5t32 -50t46.5 -28.5t55.5 -9zM1035 431q29 0 55 9t46 28.5t31.5 50t11.5 73.5q0 42 -12 72.5t-31.5 50t-46 28.5t-54.5 9q-31 0 -57 -12.5t-49.5 -34t-45 -51t-42.5 -62.5q21 -34 42.5 -63.5t45 -51t49.5 -34t57 -12.5z"/>
<glyph glyph-name="intersection" horiz-adv-x="1181" unicode="∩" d="M97 651q0 95 34.5 180t98.5 148.5t155.5 101t204.5 37.5q114 0 205 -37.5t155.5 -101t99 -148.5t34.5 -180v-651h-161v651q0 73 -23 133t-66 102.5t-105 65.5t-139 23t-138.5 -23t-105 -65.5t-66.5 -102.5t-23 -133v-651h-160v651z"/>
<glyph glyph-name="approxequal" d="M790 540q31 0 61 7t54 17.5t41.5 22t25.5 20.5l29 -157q-19 -25 -44.5 -43.5t-55 -30.5t-62 -17.5t-64.5 -5.5q-53 0 -105.5 15.5t-103.5 34.5t-99 34.5t-91 15.5q-32 0 -62 -7.5t-55 -18t-42.5 -23t-24.5 -21.5l-36 150q19 28 45 48t57 33t65 19t69 6q53 0 106 -15.5 t103.5 -34t98 -34t90.5 -15.5zM790 896q31 0 61 7t54 17.5t41.5 22t25.5 20.5l29 -157q-19 -25 -44.5 -43.5t-55 -30.5t-62 -17.5t-64.5 -5.5q-53 0 -105.5 15.5t-103.5 34.5t-99 34.5t-91 15.5q-32 0 -62 -7.5t-55 -18t-42.5 -23t-24.5 -21.5l-36 150q19 28 45 48t57 33 t65 19t69 6q53 0 106 -15.5t103.5 -34t98 -34t90.5 -15.5z" unicode="≈"/>
<glyph glyph-name="notequal" d="M724 757l-84 -169h383v-184h-475l-118 -235h-176l118 235h-235v184h327l84 169h-411v183h503l110 221h176l-110 -221h207v-183h-299z" unicode="≠"/>
<glyph glyph-name="equivalence" d="M137 414h886v-184h-886v184zM137 1119h886v-184h-886v184zM137 766h886v-183h-886v183z" unicode="≡"/>
<glyph glyph-name="lessequal" d="M559 823q-50 -19 -113 -33q63 -14 113 -34l352 -161q32 -13 43.5 -31t11.5 -38v-168l-793 382v99l793 379v-168q0 -20 -11 -38t-43 -31zM173 263h793v-183h-793v183z" unicode="≤"/>
<glyph glyph-name="greaterequal" d="M987 839v-99l-793 -382v168q0 20 11.5 38t43.5 31l352 161q50 20 113 34q-63 14 -113 33l-353 158q-32 13 -43 31t-11 38v168zM194 263h793v-183h-793v183z" unicode="≥"/>
<glyph glyph-name="lozenge" d="M1078 720l-412 -811h-172l-412 811l412 811h172zM841 720l-209 436q-18 38 -30.5 76t-21.5 77q-8 -39 -20.5 -76.5t-29.5 -74.5l-207 -438l201 -425q20 -43 33.5 -85t22.5 -84q10 42 24 83.5t34 83.5z" unicode="◊"/>
<glyph glyph-name="grave.case" d="M252 1861q20 0 34.5 -1t26 -5.5t21.5 -12.5t21 -22l218 -271h-179q-29 0 -45.5 3.5t-36.5 20.5l-319 288h259z" horiz-adv-x="800"/>
<glyph glyph-name="acute.case" d="M836 1861l-324 -286q-20 -18 -38 -22t-46 -4h-179l209 271q10 14 20 22.5t22 12.5t26.5 5t34.5 1h275z" horiz-adv-x="800"/>
<glyph glyph-name="circumflex.case" d="M757 1549h-179q-15 0 -36.5 5.5t-44.5 32.5l-82 106q-10 14 -15 22q-5 -8 -15 -22l-82 -106q-23 -27 -44.5 -32.5t-36.5 -5.5h-171l241 275h224z" horiz-adv-x="800"/>
<glyph glyph-name="caron.case" d="M757 1824l-241 -275h-232l-241 275h179q15 0 36 -4t38 -26l89 -117q5 -5 8.5 -11t6.5 -11q3 5 6.5 11t8.5 11l88 116q17 23 38.5 27t36.5 4h179z" horiz-adv-x="800"/>
<glyph glyph-name="tilde.case" d="M525 1699q22 0 38.5 9t27 22.5t15.5 30t5 32.5h151q0 -50 -13.5 -95.5t-40 -81t-65 -56.5t-88.5 -21q-51 0 -88.5 16t-68.5 34.5t-56.5 34.5t-52.5 16q-23 0 -39 -9t-26 -23t-15 -31t-5 -33h-153q0 49 14 95.5t40.5 82t65 57t88.5 21.5q51 0 89 -16t68 -34.5t56 -34.5 t53 -16z" horiz-adv-x="800"/>
<glyph glyph-name="dieresis.case" d="M754 1667q0 -27 -10.5 -51t-29 -42t-43 -28t-51.5 -10q-28 0 -52.5 10t-42.5 28t-28.5 42t-10.5 51t10.5 51.5t28.5 43t42.5 29.5t52.5 11q27 0 51.5 -11t43 -29.5t29 -43t10.5 -51.5zM314 1667q0 -27 -11 -51t-29.5 -42t-43.5 -28t-53 -10q-26 0 -49.5 10t-41.5 28 t-29 42t-11 51t11 51.5t29 43t41.5 29.5t49.5 11q28 0 53 -11t43.5 -29.5t29.5 -43t11 -51.5z" horiz-adv-x="800"/>
<glyph glyph-name="ring.case" d="M311 1706q0 -39 23 -64t67 -25q40 0 64 25t24 64q0 42 -24 66.5t-64 24.5q-44 0 -67 -24.5t-23 -66.5zM192 1706q0 43 17 78.5t45.5 60.5t65.5 39t78 14q42 0 80.5 -14t67 -39t45.5 -60.5t17 -78.5q0 -42 -17 -76t-45.5 -59t-67 -38.5t-80.5 -13.5q-41 0 -78 13.5 t-65.5 38.5t-45.5 59t-17 76z" horiz-adv-x="800"/>
<glyph glyph-name="theta.salt" d="M1289 1026v-97q0 -31 -19 -55t-61 -24h-79q2 -27 3 -55.5t1 -58.5q0 -171 -32.5 -310t-97.5 -237.5t-164.5 -151.5t-232.5 -53q-104 0 -182.5 31t-131 88.5t-78.5 139.5t-26 183v175q0 53 -16.5 79.5t-66.5 26.5h-72v98q0 32 41 57.5t116 25.5q51 0 96 -14.5t78 -48 t52 -88.5t19 -136v-175q0 -117 48 -183t145 -66q60 0 110.5 29.5t86.5 96t56 173t20 260.5q0 58 -3 114q-142 2 -253 23.5t-187 62.5t-116 102t-40 142q0 60 22.5 111t65.5 88.5t104.5 58.5t138.5 21q183 0 303.5 -107.5t168.5 -325.5h183zM529 1172q0 -73 81.5 -107 t264.5 -38q-13 58 -32.5 105t-47.5 80.5t-63.5 51.5t-79.5 18q-60 0 -91.5 -29.5t-31.5 -80.5z" horiz-adv-x="1320"/>
<glyph glyph-name="one.dnom" d="M573 114v-114h-431v114h139v360l5 51l-77 -61q-12 -9 -24.5 -11t-23 0.5t-18.5 7.5t-12 11l-55 75l233 194h149v-627h115z" horiz-adv-x="668"/>
<glyph glyph-name="two.dnom" d="M539 160q28 0 43.5 -15t15.5 -40v-105h-541v57q0 17 6.5 36t22.5 35l209 206q22 22 42 46.5t34 49t22.5 49t8.5 47.5q0 36 -19.5 58.5t-54.5 22.5q-33 0 -53 -16.5t-33 -47.5q-14 -22 -31 -31t-52 -3l-99 15q9 57 32.5 99.5t59.5 70.5t83 41.5t103 13.5q58 0 103.5 -17 t77 -46t47.5 -68.5t16 -85.5q0 -41 -12.5 -75t-33 -65t-47.5 -60t-56 -59l-128 -130q28 8 55 12.5t50 4.5h129z" horiz-adv-x="668"/>
<glyph glyph-name="three.dnom" d="M73 524q8 57 31.5 99.5t58.5 70.5t80 41.5t96 13.5q57 0 101.5 -16.5t75 -43.5t46.5 -61.5t16 -71.5q0 -63 -25.5 -106.5t-82.5 -67.5q60 -20 91 -56.5t31 -95.5q0 -62 -23 -106.5t-60 -74t-84 -43.5t-96 -14q-54 0 -97 10.5t-76.5 34t-58.5 62t-43 94.5l76 31 q30 12 55.5 6.5t36.5 -26.5q6 -11 14 -23t19.5 -21.5t27.5 -15.5t37 -6q45 0 69 25t24 60q0 27 -7 45t-23.5 29t-44.5 15.5t-70 4.5v116q42 0 69 6.5t42.5 18t22 28.5t6.5 38q0 37 -19.5 58.5t-58.5 21.5q-35 0 -55 -16t-31 -43q-7 -13 -13.5 -21t-15.5 -12.5t-21 -5 t-29 2.5z" horiz-adv-x="668"/>
<glyph glyph-name="four.dnom" d="M616 282v-88q0 -13 -9 -23t-24 -10h-60v-161h-148v161h-290q-23 0 -36.5 10.5t-17.5 26.5l-14 76l335 467h171v-459h93zM375 282v168q0 24 1.5 52t5.5 58l-202 -278h195z" horiz-adv-x="668"/>
<glyph glyph-name="glyph508" d="M-610 1715h1220v-183h-1220v183z" horiz-adv-x="0"/>
<glyph glyph-name="glyph1473" d="M708 1292q0 -28 -11 -52.5t-29.5 -42.5t-44 -28.5t-54.5 -10.5q-28 0 -53 10.5t-43.5 28.5t-29.5 42.5t-11 52.5q0 29 11 54.5t29.5 44.5t43.5 30t53 11q29 0 54.5 -11t44 -30t29.5 -44.5t11 -54.5zM368 1292q0 -28 -11 -52.5t-30.5 -42.5t-45 -28.5t-53.5 -10.5 q-27 0 -51.5 10.5t-43.5 28.5t-30 42.5t-11 52.5q0 29 11 54.5t30 44.5t43.5 30t51.5 11q28 0 53.5 -11t45 -30t30.5 -44.5t11 -54.5z" horiz-adv-x="800"/>
</font>
</defs>
</svg>
