<?xml version="1.0" encoding="UTF-8" standalone="no"?>
<!DOCTYPE svg  PUBLIC '-//W3C//DTD SVG 1.1//EN'  'http://www.w3.org/Graphics/SVG/1.1/DTD/svg11.dtd'>
<svg xmlns="http://www.w3.org/2000/svg">
<defs>
<font id="Lato-BoldItalic" horiz-adv-x="1160">
<font-face slope="-7" underline-position="-412" font-weight="700" descent="-400" panose-1="2 15 5 2 2 2 4 3 2 3" units-per-em="2000" unicode-range="U+0020-25CA" bbox="-434 -390 2103 1898" x-height="1026" underline-thickness="99" font-family="Lato" ascent="1600" font-style="italic" cap-height="1446"/>
<missing-glyph horiz-adv-x="2000"/>
<glyph glyph-name=".notdef" horiz-adv-x="2000"/>
<glyph glyph-name="glyph1" horiz-adv-x="0"/>
<glyph glyph-name="glyph1" horiz-adv-x="0"/>
<glyph glyph-name="nonmarkingreturn" horiz-adv-x="666"/>
<glyph glyph-name="space" horiz-adv-x="438" unicode=" "/>
<glyph glyph-name="space" horiz-adv-x="438" unicode=" "/>
<glyph glyph-name="exclam" horiz-adv-x="530" unicode="!" d="M63 136q0 31 11.5 59t31.5 48t48 32t60 12q31 0 59 -12t48.5 -32t32.5 -48t12 -59q0 -32 -12 -59.5t-32.5 -47.5t-48.5 -31.5t-59 -11.5q-32 0 -60 11.5t-48 31.5t-31.5 47.5t-11.5 59.5zM473 1446l-70 -573q-11 -91 -31 -178.5t-46 -186.5h-161q-1 44 -1 86q0 52 2 120 t14 159l70 573h223z"/>
<glyph glyph-name="quotedbl" horiz-adv-x="743" unicode='&quot;' d="M406 1445l-36 -288l-40 -157q-11 -42 -31.5 -65t-62.5 -23q-35 0 -50.5 23t-19.5 65l-3 157l37 288h206zM745 1445l-36 -288l-40 -157q-11 -42 -31.5 -65t-62.5 -23q-35 0 -50.5 23t-19.5 65l-3 157l37 288h206z"/>
<glyph glyph-name="numbersign" d="M1182 1036l-32 -99q-11 -38 -37 -55t-77 -17h-104l-89 -284h147q36 0 46.5 -15.5t10.5 -34.5t-7 -46l-23 -76h-219l-127 -409h-111q-17 0 -30 8t-21 21.5t-9.5 31.5t5.5 38l98 310h-211l-99 -322q-14 -48 -47 -67.5t-71 -19.5h-107l129 409h-119q-37 0 -47 16.5t-10 34.5 q0 19 7 46l22 75h192l88 284h-216l29 98q12 38 38 55.5t78 17.5h117l102 328q13 38 43.5 59.5t68.5 21.5h110l-128 -409h209l128 409h107q36 0 52 -19.5t16 -38.5q0 -12 -5 -26l-101 -325h204zM736 865h-210l-89 -284h211z" unicode="#"/>
<glyph glyph-name="dollar" d="M1063 1206q-16 -20 -30.5 -29.5t-34.5 -9.5q-15 0 -34 10t-44 24t-56.5 28.5t-70.5 22.5l-86 -423q64 -21 127 -45.5t113.5 -62.5t81.5 -93t31 -136q0 -98 -36.5 -186t-104.5 -156.5t-165.5 -112t-219.5 -51.5l-31 -151q-4 -23 -24.5 -41.5t-47.5 -18.5h-88l44 215 q-115 16 -211.5 64t-159.5 120l87 109q11 14 28 23t36 9q22 0 44.5 -16t52 -37t69 -42.5t95.5 -31.5l94 459q-63 19 -124.5 44t-109.5 64t-78 97t-30 144q0 87 35 168t101 144.5t160 104t212 45.5l26 127q4 24 24.5 42.5t47.5 18.5h88l-40 -195q104 -17 175.5 -59.5 t121.5 -98.5zM575 185q123 14 187.5 80.5t64.5 168.5q0 34 -12.5 60.5t-35 46.5t-53 35t-66.5 28zM647 1256q-63 -7 -108 -26t-73.5 -46.5t-42 -62t-13.5 -72.5q0 -33 12 -59.5t33 -47t50 -37t64 -29.5z" unicode="$"/>
<glyph glyph-name="percent" horiz-adv-x="1523" unicode="%" d="M1235 394q0 84 -29.5 119.5t-74.5 35.5q-33 0 -61.5 -14.5t-49.5 -46t-32.5 -81t-11.5 -120.5q0 -81 29 -116t75 -35q33 0 61 13.5t49 44t33 80t12 120.5zM1420 395q0 -96 -31 -172.5t-81 -130t-115 -82t-132 -28.5q-60 0 -110 22t-85 61.5t-54.5 96t-19.5 125.5 q0 96 28 173.5t76.5 131.5t114 83.5t139.5 29.5q60 0 110 -22t85.5 -62.5t55 -97.5t19.5 -128zM1230 1407q14 14 32.5 26t49.5 12h173l-1166 -1409q-14 -15 -32.5 -25.5t-44.5 -10.5h-176zM573 1149q0 84 -29.5 120t-75.5 36q-33 0 -61 -14.5t-49 -46t-32.5 -81 t-11.5 -120.5q0 -41 7.5 -70t21.5 -47t33 -26t42 -8q32 0 60.5 13.5t49.5 44t33 79.5t12 120zM758 1150q0 -96 -31 -172.5t-81.5 -130t-115.5 -82t-132 -28.5q-60 0 -109.5 21.5t-84.5 61.5t-54.5 96.5t-19.5 126.5q0 95 28 172t76.5 131t114 83.5t139.5 29.5 q60 0 110 -21.5t85.5 -62t55 -97.5t19.5 -128z"/>
<glyph glyph-name="ampersand" horiz-adv-x="1337" unicode="&amp;" d="M1264 0h-206q-29 0 -50 3.5t-37 12t-29.5 21.5t-28.5 32l-52 69q-93 -73 -200 -113.5t-225 -40.5q-92 0 -165 25.5t-124 73t-78 115t-27 151.5q0 77 24.5 145.5t68 126t103 103.5t128.5 78q-32 63 -47 125t-15 119q0 85 30 160.5t85 132t133.5 89.5t176.5 33 q82 0 145.5 -26t106 -70.5t63.5 -101t21 -117.5v-6l-143 -28q-30 -6 -46 2t-24 35q-6 27 -18 50.5t-30 41.5t-42 28t-55 10q-42 0 -75.5 -17t-57 -46.5t-36 -69t-12.5 -84.5q0 -48 18.5 -99t59.5 -108l296 -383q33 60 56.5 125t36.5 133q5 23 17 37t36 14h167 q-17 -133 -65.5 -252.5t-121.5 -219.5zM453 673q-89 -58 -127 -132.5t-38 -159.5q0 -97 51 -152t148 -55q72 0 138.5 29t124.5 80z"/>
<glyph glyph-name="quotesingle" horiz-adv-x="404" unicode="&apos;" d="M406 1445l-36 -288l-40 -157q-11 -42 -31.5 -65t-62.5 -23q-35 0 -50.5 23t-19.5 65l-3 157l37 288h206z"/>
<glyph glyph-name="parenleft" horiz-adv-x="533" unicode="(" d="M276 433q0 -69 6 -146t17.5 -154t28.5 -151t40 -137q15 -39 2 -60t-35 -34l-113 -63q-41 85 -70 177t-47.5 185.5t-27.5 186t-9 178.5q0 149 18.5 289.5t62.5 280.5t118 283.5t185 298.5l99 -63q9 -6 16 -14.5t9 -16.5t2 -13q0 -7 -3 -19t-16 -31q-65 -110 -117.5 -223 t-89.5 -233t-56.5 -249.5t-19.5 -271.5z"/>
<glyph glyph-name="parenright" horiz-adv-x="532" unicode=")" d="M260 821q0 69 -6 146t-18 154.5t-29 151.5t-39 137q-15 39 -2 60t35 34l113 63q40 -85 69.5 -176.5t48 -185.5t27.5 -186.5t9 -178.5q0 -149 -18.5 -289.5t-62.5 -280.5t-118.5 -283.5t-185.5 -298.5l-97 63q-9 6 -16.5 14.5t-9.5 16.5t-2 13q0 7 3 18.5t16 31.5 q66 110 118 224.5t89 235.5t56.5 249.5t19.5 266.5z"/>
<glyph glyph-name="asterisk" horiz-adv-x="792" unicode="*" d="M623 1205q-40 -22 -74 -28q34 -4 67 -28l132 -94l-67 -96l-133 94q-32 21 -50 43q5 -20 5 -42q0 -14 -2 -28l-23 -186h-114l23 184q2 20 6.5 38t12.5 34q-12 -12 -27.5 -22.5t-32.5 -20.5l-155 -94l-44 97l155 93q19 11 37.5 18.5t38.5 9.5q-37 6 -69 28l-133 94l69 97 l133 -95q31 -19 50 -45q-6 21 -6 44q0 13 2 28l24 186h113l-23 -184q-2 -20 -7 -38.5t-14 -35.5q25 27 62 45l155 94l44 -97z"/>
<glyph glyph-name="plus" d="M1063 583h-390l-51 -414h-195l51 414h-388l22 177h388l51 412h194l-51 -412h392z" unicode="+"/>
<glyph glyph-name="comma" horiz-adv-x="470" unicode="," d="M62 -245q-18 15 -18 36q0 14 17 33.5t38.5 45.5t42.5 59t30 74q-32 0 -57.5 11.5t-44.5 31.5t-29 47t-10 59q0 28 10.5 52.5t29.5 43t45.5 29t58.5 10.5q38 0 66.5 -13.5t47 -37t28 -54t9.5 -64.5q0 -48 -14.5 -101t-42.5 -106t-69 -103t-95 -92z"/>
<glyph glyph-name="period" horiz-adv-x="476" unicode="." d="M31 136q0 31 11.5 59t32 48t48.5 32t60 12q31 0 59 -12t48.5 -32t32.5 -48t12 -59q0 -32 -12 -59.5t-32.5 -47.5t-48.5 -31.5t-59 -11.5q-32 0 -60 11.5t-48.5 31.5t-32 47.5t-11.5 59.5z"/>
<glyph glyph-name="slash" horiz-adv-x="859" unicode="/" d="M207 -7q-22 -44 -60.5 -67t-75.5 -23h-101l702 1468q20 40 55 62t77 22h101z"/>
<glyph glyph-name="zero" d="M850 893q0 104 -15.5 174.5t-42 114t-61 62.5t-73.5 19q-40 0 -79.5 -15.5t-75.5 -49.5t-67 -89t-53.5 -134.5t-35 -184.5t-12.5 -240q0 -103 15.5 -173.5t41.5 -113.5t60.5 -62t72.5 -19q60 0 118 35t104 118t74.5 219t28.5 339zM1095 881q0 -227 -47.5 -395.5 t-128.5 -280t-189 -166.5t-229 -55q-91 0 -166.5 36t-129.5 108.5t-84 181.5t-30 254q0 227 47 395.5t127 280t187.5 166.5t229.5 55q91 0 166.5 -36t130.5 -108.5t85.5 -181.5t30.5 -254z" unicode="0"/>
<glyph glyph-name="one" d="M953 178l-23 -178h-741l22 178h267l106 862q3 23 6.5 47.5t8.5 49.5l-206 -176q-18 -14 -35.5 -17.5t-32 -0.5t-25 10.5t-15.5 16.5l-62 103l453 374h196l-155 -1269h236z" unicode="1"/>
<glyph glyph-name="two" d="M902 222q38 0 58 -22t16 -58l-18 -142h-918l10 79q3 24 15.5 50.5t38.5 48.5l454 443q67 64 116.5 120.5t82.5 111t49.5 110.5t16.5 120q0 87 -43 132t-120 45q-39 0 -73.5 -13t-63 -36t-50 -54.5t-34.5 -68.5q-22 -45 -45 -57t-49 -12q-15 0 -32 3l-123 22 q27 103 76.5 181.5t116 130.5t147 78.5t169.5 26.5q85 0 153.5 -25.5t116.5 -72.5t74 -113t26 -146q0 -91 -26.5 -166.5t-72 -143t-106 -131t-128.5 -129.5l-350 -344q50 14 99.5 23t91.5 9h325z" unicode="2"/>
<glyph glyph-name="three" d="M195 1044q27 103 76.5 181.5t116 130.5t147 78.5t169.5 26.5q86 0 153 -25t113.5 -69.5t70.5 -104.5t24 -130q0 -80 -17 -140.5t-50 -105.5t-81.5 -75t-110.5 -49q103 -38 153.5 -110t50.5 -177q0 -117 -43 -208.5t-115 -154.5t-165 -95.5t-193 -32.5q-99 0 -170.5 25.5 t-121 74t-80.5 119.5t-48 162l110 44q31 12 57 12q12 0 34.5 -5t34.5 -37q13 -34 29 -69t39 -63t56.5 -45.5t81.5 -17.5q61 0 108.5 24.5t80.5 65t50 92.5t17 108q0 39 -12 72t-43 57t-84.5 38t-137.5 14l21 170q86 1 145.5 18.5t96.5 51t53.5 81.5t16.5 110q0 85 -43 129.5 t-120 44.5q-39 0 -73.5 -13t-63 -36t-50.5 -54.5t-35 -68.5q-22 -45 -45 -57t-49 -12q-15 0 -32 3z" unicode="3"/>
<glyph glyph-name="four" d="M1060 541l-17 -137q-2 -20 -16.5 -34t-37.5 -14h-114l-44 -356h-207l44 356h-558q-23 0 -39.5 14.5t-18.5 37.5l-10 121l741 917h226l-111 -905h162zM690 541l60 490q3 27 8.5 58t13.5 64l-481 -612h399z" unicode="4"/>
<glyph glyph-name="five" d="M1070 1445l-13 -101q-6 -51 -42 -83t-112 -32h-354l-88 -310q45 10 85 14t78 4q95 0 166 -29.5t118.5 -80.5t71.5 -120.5t24 -149.5q0 -128 -44.5 -233t-121 -181t-179.5 -117.5t-221 -41.5q-63 0 -118 13.5t-102 37t-85.5 54t-68.5 63.5l86 101q28 32 65 32q24 0 46 -16 t50.5 -34.5t67.5 -34.5t98 -16q72 0 125.5 27.5t89 74.5t53.5 109.5t18 132.5q0 100 -54 157t-160 57q-47 0 -96 -9t-100 -28l-143 42l198 698h662z" unicode="5"/>
<glyph glyph-name="six" horiz-adv-x="1067" unicode="6" d="M574 918q-13 -15 -25.5 -29t-24.5 -28q39 19 83 29t93 10q69 0 131.5 -24t110 -70.5t75.5 -115.5t28 -160q0 -76 -18.5 -146t-52.5 -130.5t-82.5 -110t-108 -85t-129.5 -55t-147 -19.5q-96 0 -171.5 31.5t-127.5 88.5t-79.5 136t-27.5 175q0 66 13.5 128.5t40 124.5 t66.5 124.5t94 129.5l372 467q20 23 56 39.5t78 16.5h212zM527 179q58 0 108 23.5t87.5 65.5t59 99.5t21.5 125.5q0 53 -14.5 95.5t-41.5 72t-65.5 45.5t-86.5 16q-57 0 -106 -24t-85 -66t-56.5 -100t-20.5 -126q0 -50 12.5 -92t37.5 -72t62.5 -46.5t87.5 -16.5z"/>
<glyph glyph-name="seven" d="M1151 1445l-12 -103q-6 -46 -20 -74.5t-25 -48.5l-636 -1138q-21 -34 -53 -57.5t-83 -23.5h-173l644 1116q22 34 43.5 61.5t46.5 51.5h-628q-21 0 -35.5 17t-12.5 38l20 161h924z" unicode="7"/>
<glyph glyph-name="eight" d="M820 752q105 -38 154 -113.5t49 -181.5q0 -108 -39 -195.5t-108.5 -149t-165 -95t-207.5 -33.5q-96 0 -173 26.5t-131.5 74.5t-84 116t-29.5 152q0 150 69.5 253.5t219.5 149.5q-81 39 -121.5 108.5t-40.5 162.5t36 172t99.5 137.5t150 91.5t186.5 33q85 0 154.5 -26.5 t119 -73t76 -109.5t26.5 -135q0 -130 -60.5 -223.5t-179.5 -141.5zM662 1281q-56 0 -97 -20.5t-68 -55.5t-40 -81.5t-13 -98.5q0 -35 8.5 -68t27.5 -58.5t50 -41t77 -15.5q56 0 97.5 20.5t68.5 56t40.5 83t13.5 101.5q0 36 -9.5 68t-30 56.5t-51.5 39t-74 14.5zM525 170 q62 0 109 21.5t79 60t48.5 91.5t16.5 116q0 97 -51.5 146t-142.5 49q-54 0 -100 -16t-80 -50.5t-53 -88t-19 -128.5q0 -43 12 -80t36 -64t60.5 -42t84.5 -15z" unicode="8"/>
<glyph glyph-name="nine" d="M639 563q17 20 33 39.5t31 38.5q-49 -31 -104.5 -46.5t-115.5 -15.5q-62 0 -120 23t-103 68.5t-72 112t-27 153.5q0 108 39.5 204t109 167t165 112.5t206.5 41.5q93 0 166 -30.5t123.5 -84.5t76.5 -129t26 -164q0 -77 -14.5 -144.5t-41.5 -129.5t-66 -122.5t-88 -124.5 l-360 -477q-19 -23 -53 -39t-76 -16h-220zM403 965q0 -98 48 -152t139 -54q59 0 106.5 22.5t80.5 62t51 92.5t18 114q0 102 -52 159t-140 57q-56 0 -102 -22t-79 -62t-51.5 -95.5t-18.5 -121.5z" unicode="9"/>
<glyph glyph-name="colon" horiz-adv-x="518" unicode=":" d="M52 136q0 31 11.5 59t32 48t48.5 32t60 12q31 0 59 -12t48.5 -32t32.5 -48t12 -59q0 -32 -12 -59.5t-32.5 -47.5t-48.5 -31.5t-59 -11.5q-32 0 -60 11.5t-48.5 31.5t-32 47.5t-11.5 59.5zM132 849q0 31 11.5 59t32 48t48.5 32t60 12q31 0 59 -12t48.5 -32t32.5 -48 t12 -59q0 -32 -12 -59.5t-32.5 -47.5t-48.5 -31.5t-59 -11.5q-32 0 -60 11.5t-48.5 31.5t-32 47.5t-11.5 59.5z"/>
<glyph glyph-name="semicolon" horiz-adv-x="541" unicode=";" d="M100 -245q-18 15 -18 36q0 14 17 33.5t38.5 45.5t42.5 59t30 74q-32 0 -57.5 11.5t-44.5 31.5t-29 47t-10 59q0 28 10.5 52.5t29.5 43t45.5 29t58.5 10.5q38 0 66.5 -13.5t47 -37t28 -54t9.5 -64.5q0 -48 -14.5 -101t-42.5 -106t-69 -103t-95 -92zM143 849q0 31 11.5 59 t32 48t48.5 32t60 12q31 0 59 -12t48.5 -32t32.5 -48t12 -59q0 -32 -12 -59.5t-32.5 -47.5t-48.5 -31.5t-59 -11.5q-32 0 -60 11.5t-48.5 31.5t-32 47.5t-11.5 59.5z"/>
<glyph glyph-name="less" d="M1011 1137l-22 -176q-2 -20 -14 -36.5t-37 -28.5l-386 -186q-25 -11 -51.5 -20t-56.5 -16q55 -14 99 -36l341 -187q21 -11 29 -28t6 -37l-23 -176l-740 414l8 75h1l3 25z" unicode="&lt;"/>
<glyph glyph-name="equal" d="M177 936h882l-21 -178h-883zM134 586h882l-22 -177h-883z" unicode="="/>
<glyph glyph-name="greater" d="M1019 724l-12 -100l-844 -414l23 176q2 20 13.5 37t37.5 28l385 187q49 22 108 36q-56 13 -99 36l-340 186q-22 12 -29.5 28.5t-5.5 36.5l21 176z" unicode="&gt;"/>
<glyph glyph-name="question" horiz-adv-x="861" unicode="?" d="M200 136q0 31 11.5 59t31.5 48t48 32t60 12t59.5 -12t48 -32t32.5 -48t12 -59q0 -32 -12 -59.5t-32.5 -47.5t-48 -31.5t-59.5 -11.5t-60 11.5t-48 31.5t-31.5 47.5t-11.5 59.5zM149 1314q36 30 77 56.5t87.5 47t99 32t111.5 11.5q78 0 138.5 -22.5t101.5 -61.5t62 -91.5 t21 -112.5q0 -84 -22.5 -143t-57 -101.5t-76 -73.5t-80.5 -60.5t-70 -61.5t-44 -77l-40 -148h-165l5 164q1 50 26 89t61.5 72t79 63.5t78.5 64.5t60 74t24 93q0 65 -36.5 102.5t-109.5 37.5q-52 0 -89 -13t-64 -28.5t-46.5 -28.5t-34.5 -13q-18 0 -27.5 6.5t-18.5 23.5z"/>
<glyph glyph-name="at" horiz-adv-x="1544" unicode="@" d="M1043 546q-22 -65 -25.5 -93.5t-3.5 -42.5q0 -21 6.5 -40.5t25 -28.5t43.5 -9q45 0 86 34t72.5 94t50.5 142t19 178q0 108 -30.5 191.5t-87 140t-137 85.5t-179.5 29q-133 0 -248.5 -57t-201 -158t-134.5 -239t-49 -300q0 -136 37.5 -240t105 -174.5t162.5 -107 t210 -36.5q72 0 133.5 8t112 21.5t90.5 30.5t68 34q22 12 38.5 14t28 -3.5t18.5 -15.5t11 -22l17 -68q-104 -68 -236.5 -111t-297.5 -43q-152 0 -276 49.5t-211.5 141t-135.5 221.5t-48 292q0 125 30 241.5t84 218.5t130 185.5t167.5 143.5t196.5 93t217 33 q120 0 226.5 -41.5t185.5 -119t125 -188.5t46 -249q0 -126 -35.5 -234.5t-96 -189t-142.5 -126.5t-175 -46q-62 0 -107 31.5t-56 101.5q-63 -71 -128 -101.5t-136 -30.5q-51 0 -88.5 18t-62.5 50t-37 75.5t-12 93.5q0 61 16 124.5t47.5 123.5t78 112.5t107.5 92t136.5 62.5 t164.5 23q37 0 67.5 -3t56.5 -8.5t49 -13.5t46 -19zM961 806q-29 6 -58 6q-60 0 -115.5 -31t-98.5 -82t-68.5 -116.5t-25.5 -134.5q0 -51 20.5 -80t60.5 -29q23 0 47.5 8.5t48 29.5t46 56t40.5 89z"/>
<glyph glyph-name="A" horiz-adv-x="1300" unicode="A" d="M1229 0h-201q-34 0 -52.5 16.5t-26.5 42.5l-60 302h-539l-134 -302q-11 -23 -35.5 -41t-56.5 -18h-204l699 1446h265zM852 544l-98 495q-6 34 -14 79t-16 98q-20 -53 -39 -98t-34 -80l-219 -494h420z"/>
<glyph glyph-name="B" horiz-adv-x="1228" unicode="B" d="M719 1446q120 0 205.5 -23.5t140 -66.5t80.5 -104t26 -136q0 -62 -16.5 -118.5t-51.5 -104.5t-89 -86t-129 -63q123 -31 183 -100.5t60 -176.5q0 -100 -37 -185.5t-107 -148t-170.5 -98t-227.5 -35.5h-509l178 1446h464zM489 1246l-53 -430h192q134 0 206.5 63t72.5 193 q0 91 -51.5 132.5t-160.5 41.5h-206zM607 202q69 0 119.5 19t82.5 53.5t47.5 83t15.5 106.5q0 79 -50 126t-164 47h-244l-53 -435h246z"/>
<glyph glyph-name="C" horiz-adv-x="1241" unicode="C" d="M685 204q61 0 106 9.5t79 24.5t57.5 31.5t41.5 31.5t32 24.5t28 9.5q13 0 21 -5t13 -10l91 -113q-94 -108 -221 -165.5t-292 -57.5q-134 0 -238 47.5t-175.5 131.5t-109 199t-37.5 251q0 125 27 236.5t77 206t119.5 169.5t155 128t184 81t205.5 28q79 0 144 -14.5 t117.5 -40.5t95 -62.5t76.5 -81.5l-90 -108q-10 -12 -23.5 -21t-33.5 -9q-22 0 -42 18t-50.5 39.5t-79 39.5t-127.5 18q-104 0 -193.5 -42.5t-155.5 -121.5t-103.5 -190.5t-37.5 -250.5q0 -101 25.5 -181t71 -135.5t107.5 -85t135 -29.5z"/>
<glyph glyph-name="D" horiz-adv-x="1416" unicode="D" d="M1095 814q0 97 -24 176t-69.5 134.5t-111.5 85.5t-151 30h-248l-128 -1033h249q109 0 198 42t152.5 120.5t98 191t34.5 253.5zM1361 820q0 -180 -58 -331t-161.5 -259.5t-245.5 -169t-310 -60.5h-509l178 1446h510q138 0 248.5 -47t187.5 -130t118.5 -198t41.5 -251z"/>
<glyph glyph-name="E" horiz-adv-x="1073" unicode="E" d="M491 1239l-51 -411h457l-25 -199h-457l-52 -422h584l-26 -207h-844l178 1446h843l-26 -207h-581z"/>
<glyph glyph-name="F" horiz-adv-x="1062" unicode="F" d="M491 1239l-55 -440h492l-28 -207h-489l-73 -592h-261l178 1446h843l-26 -207h-581z"/>
<glyph glyph-name="G" horiz-adv-x="1355" unicode="G" d="M819 721h450l-72 -581q-110 -80 -237 -118t-290 -38q-133 0 -241.5 48t-186 133.5t-119.5 203t-42 256.5q0 122 27 231.5t76.5 202.5t119.5 167.5t156 127t186.5 80.5t210.5 28q88 0 159.5 -15.5t129.5 -42.5t104 -63t82 -76l-84 -108q-20 -28 -49 -34.5t-59 13.5 q-29 19 -58 37.5t-63.5 33.5t-78.5 24t-103 9q-108 0 -198 -43.5t-155 -123t-101 -191t-36 -248.5q0 -104 26.5 -186t74.5 -139t115.5 -87.5t150.5 -30.5q82 0 144 15.5t119 44.5l33 275h-160q-25 0 -37.5 13.5t-10.5 33.5z"/>
<glyph glyph-name="H" horiz-adv-x="1435" unicode="H" d="M1386 1446l-178 -1446h-262l79 635h-609l-78 -635h-261l178 1446h261l-77 -627h608l78 627h261z"/>
<glyph glyph-name="I" horiz-adv-x="564" unicode="I" d="M338 0h-261l176 1446h261z"/>
<glyph glyph-name="J" horiz-adv-x="818" unicode="J" d="M665 501q-15 -120 -54 -216t-101.5 -162.5t-148.5 -102.5t-195 -36q-54 0 -102.5 6.5t-99.5 20.5l19 152q3 21 15 35t38 14q23 0 53.5 -7t76.5 -7t85.5 16t70.5 51.5t52.5 92t30.5 137.5l116 951h259z"/>
<glyph glyph-name="K" horiz-adv-x="1283" unicode="K" d="M437 835h56q35 0 59.5 10.5t44.5 34.5l418 510q25 33 54.5 44.5t68.5 11.5h223l-512 -605q-22 -28 -44 -46.5t-46 -29.5q29 -12 51.5 -32.5t39.5 -55.5l368 -677h-229q-23 0 -39 3.5t-27.5 10t-19 16t-13.5 21.5l-298 539q-13 27 -35.5 38t-65.5 11h-78l-78 -639h-258 l176 1447h260z"/>
<glyph glyph-name="L" horiz-adv-x="966" unicode="L" d="M888 215l-25 -215h-786l178 1446h259l-152 -1231h526z"/>
<glyph glyph-name="M" horiz-adv-x="1758" unicode="M" d="M1709 1446l-178 -1446h-228l116 942q4 26 9.5 56t12.5 62l-497 -824q-17 -28 -42.5 -42t-55.5 -14h-36q-30 0 -52.5 14t-32.5 42l-298 824q-1 -31 -2.5 -60t-4.5 -54l-114 -946h-229l178 1446h195q17 0 28.5 -1.5t20.5 -6t17 -13t17 -21.5l299 -826q18 -53 30 -108 q13 28 26.5 55t29.5 53l502 826q12 13 21.5 21.5t19.5 13t22 6t29 1.5h197z"/>
<glyph glyph-name="N" horiz-adv-x="1435" unicode="N" d="M1386 1446l-178 -1446h-134q-30 0 -49.5 10.5t-36.5 34.5l-560 988q-2 -25 -4 -47.5t-4 -42.5l-114 -943h-229l178 1446h136q17 0 28.5 -1.5t20.5 -6t16 -12.5t15 -22l563 -987q2 30 4.5 57.5t5.5 50.5l113 921h229z"/>
<glyph glyph-name="O" horiz-adv-x="1506" unicode="O" d="M1187 814q0 98 -24.5 178t-71 137t-113.5 88t-151 31q-108 0 -196.5 -44t-151.5 -125t-97.5 -195t-34.5 -253q0 -98 24 -178t70 -136.5t112.5 -87t151.5 -30.5q109 0 198 44t152 124t97.5 193.5t34.5 253.5zM1453 820q0 -120 -26.5 -228.5t-75.5 -201.5t-119 -168 t-156.5 -128t-187.5 -81.5t-212 -28.5q-138 0 -248 49t-187.5 135t-118.5 203t-41 254q0 120 26.5 228.5t76 201.5t119 168t156 128.5t187.5 82t213 28.5q138 0 248 -49t187 -135t118 -203.5t41 -254.5z"/>
<glyph glyph-name="P" horiz-adv-x="1162" unicode="P" d="M693 1446q123 0 211.5 -29.5t145.5 -82.5t84.5 -125.5t27.5 -159.5q0 -116 -36.5 -214.5t-109.5 -170t-182.5 -112t-255.5 -40.5h-180l-63 -512h-258l176 1446h440zM604 714q77 0 133 23t92.5 64.5t54 98.5t17.5 126q0 49 -14 90t-43 69.5t-72.5 44.5t-103.5 16h-180 l-65 -532h181z"/>
<glyph glyph-name="Q" horiz-adv-x="1506" unicode="Q" d="M871 8q-93 -24 -195 -24q-138 0 -248 49t-187.5 135t-118.5 203t-41 254q0 120 26.5 228.5t76 201.5t119 168t156 128.5t187.5 82t213 28.5q138 0 248 -49t187 -135t118 -203.5t41 -254.5q0 -115 -24.5 -220t-70.5 -195.5t-110.5 -165t-145.5 -128.5l289 -395h-212 q-46 0 -81.5 12.5t-61.5 46.5zM347 631q0 -98 24 -178t70 -136.5t112.5 -87t151.5 -30.5q109 0 198 44t152 124t97.5 193.5t34.5 253.5q0 98 -24.5 178t-71 137t-113.5 88t-151 31q-108 0 -196.5 -44t-151.5 -125t-97.5 -195t-34.5 -253z"/>
<glyph glyph-name="R" horiz-adv-x="1199" unicode="R" d="M664 1446q125 0 214.5 -26.5t146.5 -74t84 -113.5t27 -145q0 -83 -23.5 -157t-67.5 -134t-108 -105t-145 -70q23 -14 41.5 -34t32.5 -48l258 -539h-233q-67 0 -89 52l-212 469q-12 26 -29.5 37.5t-54.5 11.5h-101l-70 -570h-258l176 1446h411zM577 755q78 0 134.5 22.5 t93.5 62t55 92.5t18 114q0 94 -58.5 147t-179.5 53h-152l-60 -491h149z"/>
<glyph glyph-name="S" horiz-adv-x="1031" unicode="S" d="M941 1186q-14 -20 -27.5 -29.5t-33.5 -9.5t-41 16t-50 35.5t-69 35.5t-96 16q-54 0 -96 -16t-70.5 -44t-43 -66t-14.5 -82q0 -46 23.5 -76.5t61.5 -53.5t87 -41t99.5 -38t99.5 -46t87 -64t61.5 -91.5t23.5 -129.5q0 -106 -37 -200t-105 -164.5t-166 -112t-219 -41.5 q-63 0 -124 13.5t-115 38.5t-100 60t-80 78l92 124q11 14 28 23t34 9q16 0 31.5 -10t34 -24.5t40 -32t49 -32t63 -24.5t80.5 -10q114 0 178 64t64 177q0 50 -23 82t-61 54t-86.5 38.5t-98.5 35t-98.5 43t-86.5 63t-61 94.5t-23 138q0 93 34.5 179t99 151.5t156 105 t206.5 39.5q59 0 113.5 -12t101.5 -34t86.5 -52.5t68.5 -67.5z"/>
<glyph glyph-name="T" horiz-adv-x="1114" unicode="T" d="M1158 1233h-395l-152 -1233h-258l150 1233h-397l26 213h1053z"/>
<glyph glyph-name="U" horiz-adv-x="1383" unicode="U" d="M642 208q70 0 128.5 26.5t102.5 75t72.5 116.5t38.5 151l106 869h260l-107 -869q-16 -128 -68 -237t-133.5 -188t-190 -123.5t-237.5 -44.5t-226.5 44.5t-159.5 123.5t-87 188q-15 66 -15 140q0 47 6 97l104 869h260l-106 -868q-5 -39 -5 -74q1 -42 7 -78 q12 -68 44 -116.5t83.5 -75t122.5 -26.5z"/>
<glyph glyph-name="V" horiz-adv-x="1298" unicode="V" d="M1406 1446l-715 -1446h-235l-360 1446h209q34 0 53.5 -16.5t24.5 -42.5l194 -901q11 -42 20 -91.5t16 -103.5q17 54 37 103.5t41 91.5l412 901q10 22 35.5 40.5t57.5 18.5h210z"/>
<glyph glyph-name="W" horiz-adv-x="1937" unicode="W" d="M2024 1446l-591 -1446h-235l-163 1002q-3 20 -6 42.5t-5 47.5q-9 -25 -17.5 -47.5t-16.5 -42.5l-409 -1002h-233l-236 1446h203q34 0 54.5 -16.5t24.5 -42.5l127 -887q3 -32 5.5 -69t4.5 -77q13 40 26 77t27 69l360 887q11 22 35.5 40.5t56.5 18.5h61q34 0 53 -16.5 t27 -42.5l144 -887q5 -31 9.5 -67t7.5 -75q11 39 22 74.5t22 67.5l343 887q4 12 13 22.5t21.5 18.5t28 13t31.5 5h205z"/>
<glyph glyph-name="X" horiz-adv-x="1261" unicode="X" d="M832 784l363 -784h-233q-26 0 -40.5 14t-22.5 31l-250 579q-9 -17 -19 -32l-374 -547q-17 -25 -37.5 -35t-43.5 -10h-259l558 773l-326 673h235q26 0 38 -7.5t20 -25.5l221 -498q5 10 11 20t13 21l308 454q24 36 59 36h271z"/>
<glyph glyph-name="Y" horiz-adv-x="1215" unicode="Y" d="M731 564l-70 -564h-259l70 562l-377 884h231q34 0 53 -16t28 -43l186 -500q13 -37 22 -71.5t16 -66.5q16 33 34.5 66.5t40.5 71.5l311 500q14 23 37 41t55 18h215z"/>
<glyph glyph-name="Z" horiz-adv-x="1122" unicode="Z" d="M1163 1365q-3 -17 -10.5 -32t-18.5 -30l-799 -1096h670l-26 -207h-1016l10 79q2 17 10 32t18 30l801 1098h-642l25 207h989z"/>
<glyph glyph-name="bracketleft" horiz-adv-x="597" unicode="[" d="M648 1451q-3 -24 -23 -42t-47 -18h-122l-190 -1543h123q28 0 43 -17.5t12 -43.5l-12 -92h-383l227 1850h383z"/>
<glyph glyph-name="backslash" horiz-adv-x="852" unicode="\" d="M157 1455h101q43 0 71.5 -22t39.5 -62l342 -1468h-100q-38 0 -71 23t-44 67z"/>
<glyph glyph-name="bracketright" horiz-adv-x="597" unicode="]" d="M321 -305h-383l12 92q3 26 22.5 43.5t46.5 17.5h123l190 1543h-123q-28 0 -43 18t-13 42l13 94h383z"/>
<glyph glyph-name="asciicircum" d="M1082 777h-181q-23 0 -37.5 12t-24.5 29l-158 289q-16 28 -28 53t-21 51q-14 -49 -45 -104l-155 -289q-9 -17 -24.5 -29t-41.5 -12h-190l373 669h160z" unicode="^"/>
<glyph glyph-name="underscore" horiz-adv-x="889" unicode="_" d="M717 -138l-20 -155h-725l19 155h726z"/>
<glyph glyph-name="grave" horiz-adv-x="736" unicode="`" d="M452 1462q36 0 53 -13.5t28 -39.5l103 -243h-129q-26 0 -41.5 7.5t-29.5 27.5l-198 261h214z"/>
<glyph glyph-name="a" horiz-adv-x="1042" unicode="a" d="M652 214q-68 -105 -153.5 -167t-186.5 -62q-58 0 -108.5 23t-88 68.5t-59 114t-21.5 160.5t23 179t65.5 163.5t102.5 140.5t134.5 110t161 71.5t182.5 25.5q69 0 138.5 -10t135.5 -36l-123 -995h-131q-47 0 -63.5 23.5t-16.5 58.5zM720 864q-14 1 -26.5 1.5t-24.5 0.5 q-83 0 -154 -38t-122.5 -102.5t-81 -150t-29.5 -180.5q0 -108 34 -158t93 -50q41 0 80.5 28.5t75 78t65 116.5t51.5 144z"/>
<glyph glyph-name="b" horiz-adv-x="1078" unicode="b" d="M381 823q72 101 160.5 160t188.5 59q64 0 116 -23.5t89 -70.5t57 -119t20 -169q0 -87 -18 -171t-50.5 -159t-78.5 -138t-101.5 -109t-119 -72t-131.5 -26q-78 0 -140 31.5t-104 85.5l-8 -34q-11 -35 -29 -51.5t-58 -16.5h-134l180 1486h242zM309 240q34 -37 78 -52 t87 -15q66 0 120 41t92.5 107t59.5 148.5t21 165.5q0 108 -35 160.5t-98 52.5q-41 0 -83 -27.5t-81 -76t-72.5 -114.5t-57.5 -142z"/>
<glyph glyph-name="c" horiz-adv-x="907" unicode="c" d="M831 182q-51 -56 -97.5 -94t-94.5 -61t-100.5 -32.5t-115.5 -9.5q-89 0 -159.5 30.5t-119.5 86.5t-75 135t-26 176q0 83 18 162t52 149t82 128t108 100t130.5 65.5t149.5 23.5q102 0 173.5 -36t126.5 -108l-79 -94q-8 -9 -20 -16.5t-26 -7.5q-17 0 -30.5 10.5t-32 22.5 t-46 22.5t-71.5 10.5q-57 0 -109 -31t-92 -88t-63.5 -137t-23.5 -177q0 -113 50 -174.5t136 -61.5q38 0 67 8t51.5 19.5t39.5 25t32 25t28.5 19.5t29.5 8q13 0 24.5 -6.5t20.5 -16.5z"/>
<glyph glyph-name="d" horiz-adv-x="1079" unicode="d" d="M1073 1486l-184 -1486h-131q-47 0 -63.5 23.5t-16.5 58.5l9 143q-37 -55 -79 -99.5t-88 -75.5t-95.5 -48t-101.5 -17q-64 0 -116 23.5t-89 70.5t-57 119t-20 170q0 87 18 170.5t51 158.5t78.5 138t101.5 109t119.5 72t131.5 26q69 0 125 -25t98 -69l67 538h242zM744 787 q-34 37 -78 52t-87 15q-66 0 -120 -41t-92.5 -107t-59.5 -148.5t-21 -165.5q0 -108 35.5 -160.5t98.5 -52.5q40 0 82 27.5t81 76t72.5 114.5t57.5 142z"/>
<glyph glyph-name="e" horiz-adv-x="974" unicode="e" d="M283 418q0 -242 205 -242q44 0 78 8.5t59.5 20.5t46 27t38 27t34.5 20.5t37 8.5q12 0 23.5 -6t20.5 -16l63 -76q-53 -53 -104 -92t-104 -64t-112 -37t-128 -12q-90 0 -163 30.5t-125 86t-80.5 134t-28.5 175.5q0 81 17.5 159t50.5 148t81 129t108.5 102t133 67t155.5 24 q80 0 140.5 -23t101 -59.5t60.5 -81.5t20 -88q0 -69 -27.5 -126t-98 -102t-192.5 -77.5t-310 -51.5v-13zM575 868q-50 0 -93 -20.5t-77.5 -57.5t-60 -88.5t-40.5 -112.5q124 17 199.5 37.5t116.5 44t54.5 51t13.5 57.5q0 15 -6.5 31t-20 28.5t-35 21t-51.5 8.5z"/>
<glyph glyph-name="f" horiz-adv-x="662" unicode="f" d="M448 841l-97 -799l-51 -188q-15 -48 -44 -74.5t-83 -26.5h-99l131 1088l-79 14q-23 5 -38 19.5t-11 42.5l12 100h138l9 76q11 88 46.5 158t90 119t125.5 75t153 26q64 0 118 -19l-22 -128q-5 -23 -28 -27.5t-52 -4.5q-40 0 -73.5 -11t-59 -35.5t-42 -64t-23.5 -96.5 l-8 -68h230l-23 -176h-220z"/>
<glyph glyph-name="g" horiz-adv-x="1005" unicode="g" d="M1022 989l-11 -80q-7 -48 -49 -64l-105 -27q5 -20 7.5 -42.5t2.5 -46.5q0 -46 -10 -82.5t-24.5 -67.5t-31.5 -58.5t-31.5 -56t-24.5 -60t-10 -69.5q0 -41 17 -75.5t37 -70.5t37 -77t17 -95q-1 -76 -35 -144.5t-97.5 -120t-155.5 -81.5t-208 -30q-94 0 -170 19.5 t-129 54.5t-82 82.5t-29 104.5q0 70 30 122t80 87.5t115 56.5t128.5 29t121.5 8l48 -1q47 -1 107 -11q-9 30 -9 65q0 58 32 128q-38 -26 -86.5 -40t-116.5 -14q-58 0 -110.5 19t-92.5 58t-63.5 97.5t-23.5 136.5q0 75 28 146.5t83 128t136 90.5t188 34q57 0 108.5 -13 t94.5 -40h287zM457 481q45 0 79 21t57.5 55t35.5 76.5t13 86.5q0 75 -35.5 115t-102.5 40q-45 0 -79 -19.5t-57 -52t-34.5 -74.5t-11.5 -87q0 -77 35 -119t100 -42zM368 -189q56 0 102 14t79 39t51 59t18 73q0 14 -1.5 27.5t-3.5 25.5q-103 17 -180 17q-12 0 -59 -1.5 t-100 -19.5t-78 -48t-25 -64q0 -60 48.5 -91t148.5 -31z"/>
<glyph glyph-name="h" horiz-adv-x="1082" unicode="h" d="M390 852q75 96 162.5 143t178.5 47q65 0 116.5 -26t84.5 -75.5t43.5 -105t10.5 -99.5q0 -39 -6 -83l-78 -653h-246l77 653q5 36 5 64q0 52 -19.5 88t-81.5 36q-38 0 -79 -21.5t-79 -61t-71 -95.5t-56 -125l-65 -538h-247l180 1486h247z"/>
<glyph glyph-name="i" horiz-adv-x="490" unicode="i" d="M479 1325q0 -32 -13.5 -60t-35.5 -49t-50 -33.5t-58 -12.5q-29 0 -56 12.5t-48 33.5t-33.5 49t-12.5 60t13 61t34 50.5t48.5 34t56.5 12.5q30 0 58 -12.5t49.5 -33.5t34.5 -50t13 -62zM416 1026l-123 -1026h-243l123 1026h243z"/>
<glyph glyph-name="j" horiz-adv-x="488" unicode="j" d="M470 1325q0 -32 -13.5 -60t-35.5 -49t-50 -33.5t-58 -12.5q-29 0 -56 12.5t-48 33.5t-33.5 49t-12.5 60t13 61t34 50.5t48.5 34t56.5 12.5q30 0 58 -12.5t49.5 -33.5t34.5 -50t13 -62zM415 1026l-129 -1061q-8 -67 -33.5 -126t-68.5 -103.5t-103.5 -70t-138.5 -25.5 q-40 0 -68 4.5t-56 14.5l24 133q5 20 18.5 25.5t47.5 5.5q33 0 56.5 7.5t39.5 24t25.5 43.5t14.5 67l129 1061h242z"/>
<glyph glyph-name="k" horiz-adv-x="1001" unicode="k" d="M464 1486l-104 -851h25q23 0 37.5 7t30.5 26l273 315q17 21 36 32t48 11h220l-338 -381q-36 -44 -78 -69q19 -14 32.5 -34t24.5 -44l253 -498h-214q-27 0 -45 9.5t-29 34.5l-199 389q-11 23 -23.5 30t-40.5 7h-34l-57 -470h-244l183 1486h243z"/>
<glyph glyph-name="l" horiz-adv-x="477" unicode="l" d="M43 0l180 1486h244l-181 -1486h-243z"/>
<glyph glyph-name="m" horiz-adv-x="1586" unicode="m" d="M40 0l124 1027h126q39 0 60.5 -19t21.5 -61l-5 -113q69 105 150 156.5t169 51.5q94 0 149 -63t64 -182q72 126 159.5 185.5t190.5 59.5q65 0 114 -26t80 -75.5t39 -103t8 -93.5q0 -43 -6 -91l-77 -653h-244l77 653q5 41 5 73q0 45 -14.5 79.5t-70.5 34.5q-38 0 -74 -20 t-68.5 -58t-60 -93t-48.5 -124l-64 -545h-244l78 653q5 41 5 73q0 45 -13.5 79.5t-70.5 34.5q-40 0 -76.5 -21t-69 -60.5t-60 -96t-48.5 -126.5l-64 -536h-242z"/>
<glyph glyph-name="n" horiz-adv-x="1082" unicode="n" d="M365 814q78 115 173 171.5t196 56.5q64 0 115 -26t84 -76t47 -122q7 -38 7 -82q0 -39 -6 -83l-77 -653h-247l77 653q5 36 5 65q0 50 -15 78q-23 44 -84 44q-41 0 -84 -23.5t-83 -67t-73.5 -104t-54.5 -135.5l-57 -510h-247l123 1027h125q39 0 60.5 -19t21.5 -61z"/>
<glyph glyph-name="o" horiz-adv-x="1047" unicode="o" d="M439 -15q-85 0 -157 28.5t-125 83.5t-83 135t-30 183q0 133 43 248t116.5 199t171.5 132t209 48q85 0 157.5 -28.5t125 -83.5t82.5 -135t30 -183q0 -132 -43 -246.5t-116.5 -199t-171.5 -133t-209 -48.5zM462 175q62 0 112 35.5t85 95t54 138.5t19 166q0 125 -42 183.5 t-128 58.5q-62 0 -112.5 -35t-85.5 -94.5t-54 -138.5t-19 -167q0 -125 42 -183.5t129 -58.5z"/>
<glyph glyph-name="p" horiz-adv-x="1078" unicode="p" d="M365 800q74 111 167.5 176.5t198.5 65.5q64 0 116 -23.5t89 -70.5t57 -119t20 -169q0 -87 -18 -171t-51 -159t-78.5 -138t-101.5 -109t-119.5 -72t-131.5 -26q-70 0 -125.5 25t-97.5 68l-51 -413h-240l166 1362h125q39 0 60.5 -19t21.5 -61zM310 240q34 -37 78 -52 t86 -15q66 0 120 41t93 107t60 148.5t21 165.5q0 108 -35.5 160.5t-98.5 52.5q-41 0 -83 -28t-81 -76.5t-72.5 -114.5t-57.5 -142z"/>
<glyph glyph-name="q" horiz-adv-x="1043" unicode="q" d="M634 187q-66 -94 -146 -148t-175 -54q-58 0 -109 23t-88.5 68.5t-59 114t-21.5 160.5t23 179t65.5 163.5t102.5 140.5t134.5 110t161 71.5t182.5 25.5q70 0 139 -10t136 -36l-166 -1330h-160q-23 0 -38.5 8.5t-24 22t-11 29.5t-0.5 32zM721 864q-14 1 -26.5 1.5 t-24.5 0.5q-83 0 -154 -38t-122.5 -102.5t-81 -150t-29.5 -180.5q0 -108 34 -158t93 -50q41 0 80 28t74.5 77.5t65 116t51.5 143.5z"/>
<glyph glyph-name="r" horiz-adv-x="707" unicode="r" d="M365 780q39 76 83.5 130.5t92.5 85t78.5 34t40.5 3.5l82 -18l-45 -236q-49 20 -93 20q-66 0 -139 -60.5t-128 -283.5l-55 -455h-242l124 1027h126q39 0 60.5 -19t21.5 -61z"/>
<glyph glyph-name="s" horiz-adv-x="811" unicode="s" d="M724 833q-11 -16 -21 -22.5t-26 -6.5q-18 0 -36 10t-41.5 22.5t-54 22.5t-72.5 10q-79 0 -121 -35.5t-42 -88.5q0 -41 29.5 -66t74.5 -44t96.5 -38.5t96.5 -49t74.5 -76t29.5 -119.5q0 -74 -29.5 -141t-84.5 -117.5t-132.5 -80t-174.5 -29.5q-48 0 -94 9.5t-85.5 26.5 t-72.5 40t-56 50l61 94q11 17 26 26t37 9q21 0 38 -13t39.5 -28.5t55 -28.5t83.5 -13q41 0 72.5 11t53.5 30t33 44t11 53q0 34 -17 56.5t-45.5 39t-64.5 29t-73.5 26.5t-73 32t-64 45.5t-45.5 67t-17 96.5q0 68 26 132.5t76 114t123.5 79.5t168.5 30q98 0 174 -33.5 t127 -85.5z"/>
<glyph glyph-name="t" horiz-adv-x="732" unicode="t" d="M127 209v16.5t1.5 28t5 49t9.5 78.5l57 460h-97q-18 0 -28 11.5t-10 27.5q0 6 1 13l11 98l156 27l82 280q7 20 21 31t35 11h132l-40 -323h248l-21 -176h-249l-55 -447q-5 -41 -8 -65t-4.5 -37.5t-1.5 -19v-7.5q0 -38 18.5 -60t52.5 -22q21 0 36 5.5t26 11.5t20 11.5 t17 5.5q11 0 17 -5.5t11 -16.5l53 -120q-55 -45 -121.5 -68t-135.5 -23q-109 0 -172.5 59t-66.5 166z"/>
<glyph glyph-name="u" horiz-adv-x="1082" unicode="u" d="M1017 1026l-124 -1026h-125q-88 0 -88 85l6 118q-78 -110 -170.5 -164t-191.5 -54q-64 0 -115 26t-84 75.5t-47 122.5q-7 39 -7 83q0 39 6 83l77 651h247l-77 -651q-5 -36 -5 -65q0 -52 15 -80q23 -44 84 -43q40 0 81.5 22t80.5 63t72 98.5t55 128.5l63 527h247z"/>
<glyph glyph-name="v" horiz-adv-x="983" unicode="v" d="M1028 1026l-506 -1026h-207l-257 1026h203q26 0 41.5 -13t19.5 -33l107 -548q8 -50 13 -98t8 -96q30 96 70 194l245 548q9 20 27.5 33t41.5 13h194z"/>
<glyph glyph-name="w" horiz-adv-x="1476" unicode="w" d="M1507 1026l-424 -1026h-191q-31 0 -38 44l-98 593q-6 38 -9 77q-7 -20 -14 -39.5t-15 -39.5l-243 -591q-18 -44 -54 -44h-183l-174 1026h188q25 0 41 -13t20 -33l60 -548q3 -45 5 -86t4 -83q15 42 31.5 83t33.5 86l223 550q8 20 26 33t41 13h105q26 0 42 -13t18 -33 l85 -550q6 -45 11.5 -86.5t9.5 -83.5q11 41 24.5 83t28.5 87l199 548q7 20 25 33t41 13h181z"/>
<glyph glyph-name="x" horiz-adv-x="975" unicode="x" d="M637 554l263 -554h-224q-25 0 -39.5 13.5t-22.5 31.5l-158 361q-5 -12 -10.5 -22.5t-12.5 -20.5l-228 -318q-13 -17 -28.5 -31t-39.5 -14h-217l407 554l-237 472h224q25 0 36 -7t19 -24l140 -305q6 12 13 24t16 25l181 252q22 35 54 35h224z"/>
<glyph glyph-name="y" horiz-adv-x="983" unicode="y" d="M1032 1026l-678 -1310q-14 -26 -33 -38.5t-47 -12.5h-183l228 414l-259 947h207q27 0 40.5 -13.5t18.5 -32.5l126 -532q10 -51 15 -102q11 26 22.5 51.5t23.5 51.5l253 532q10 20 29 32.5t39 12.5h198z"/>
<glyph glyph-name="z" horiz-adv-x="866" unicode="z" d="M858 1026l-13 -102q-2 -26 -14 -50.5t-26 -41.5l-512 -642h451l-23 -190h-746l13 103q1 17 12 41t28 44l517 649h-441l23 189h731z"/>
<glyph glyph-name="braceleft" horiz-adv-x="580" unicode="{" d="M638 1545l-13 -107q-1 -12 -7.5 -21t-15 -15t-18 -8.5t-15.5 -2.5h-7q-66 0 -104.5 -47.5t-45.5 -135.5q-5 -51 -6.5 -98t-1.5 -91.5t-0.5 -87t-4.5 -85.5q-8 -84 -53.5 -145t-117.5 -82q57 -20 88 -69.5t31 -112.5q0 -58 -13 -113.5t-29 -111t-29 -112t-13 -117.5 q0 -60 27.5 -97.5t81.5 -37.5h8q7 0 15.5 -2.5t15.5 -8.5t11 -15t2 -22l-13 -105h-49q-79 0 -137 21t-95.5 58.5t-56 89.5t-18.5 115q0 65 14.5 124t31.5 115t31.5 111t14.5 112q0 48 -23 79t-71 31l17 138q74 0 103 61.5t29 188.5q0 16 -1 37t-1.5 43.5t-1.5 44t-1 38.5 q0 106 24 188.5t72.5 139t122.5 86t174 29.5h48z"/>
<glyph glyph-name="bar" horiz-adv-x="539" unicode="|" d="M173 1547h191v-1882h-191v1882z"/>
<glyph glyph-name="braceright" horiz-adv-x="580" unicode="}" d="M220 1545q79 0 136.5 -21t95 -58.5t56 -90.5t18.5 -116q0 -65 -14 -123.5t-31 -114.5t-31 -111t-14 -111q0 -48 21.5 -79t71.5 -31l-17 -138q-73 0 -102.5 -62t-29.5 -190q0 -15 0.5 -36t1.5 -43t1.5 -44t0.5 -38q0 -212 -96.5 -327.5t-295.5 -115.5h-49l15 105 q1 13 7 22t14.5 15t17.5 8.5t16 2.5h8q66 0 104 48t45 136q5 51 6.5 97.5t1.5 91t1 87t5 84.5q7 84 52.5 145t117.5 82q-58 20 -89 70.5t-31 113.5q0 57 13.5 112.5t29.5 111t29.5 112.5t13.5 118q0 60 -27.5 97t-82.5 37h-7q-7 0 -15.5 2.5t-15.5 8.5t-11 15t-2 21l12 107 h49z"/>
<glyph glyph-name="asciitilde" d="M743 648q57 0 87.5 36t31.5 101h199q0 -77 -20.5 -139.5t-59 -107t-94.5 -68.5t-128 -24q-53 0 -101.5 14t-92 30.5t-82 30.5t-69.5 14q-56 0 -87 -36t-31 -101h-200q0 77 20.5 139.5t59.5 107t95 68.5t128 24q52 0 100.5 -14t92 -30.5t81.5 -30.5t70 -14z" unicode="~"/>
<glyph glyph-name="exclamdown" horiz-adv-x="502" unicode="¡" d="M133 891q0 31 11.5 59t31.5 48t48 32t60 12q31 0 59 -12t48.5 -32t32.5 -48t12 -59q0 -32 -12 -59.5t-32.5 -47.5t-48.5 -31.5t-59 -11.5q-32 0 -60 11.5t-48 31.5t-31.5 47.5t-11.5 59.5zM28 -337l67 535q11 91 30 178t44 186h156v-49q0 -72 -2.5 -148t-14.5 -167 l-65 -535h-215z"/>
<glyph glyph-name="cent" d="M997 816q-11 -14 -22.5 -21t-29.5 -7q-14 0 -28 7t-32.5 17t-42.5 20.5t-57 17.5l-141 -684q55 5 93.5 19.5t66 29.5t48 27t39.5 12q30 0 42 -20l56 -84q-39 -40 -84 -69t-94 -48.5t-100.5 -30.5t-103.5 -15l-31 -150q-5 -23 -24.5 -41.5t-46.5 -18.5h-88l44 214 q-79 12 -145 48.5t-113 93.5t-73.5 134t-26.5 172q0 124 39 231.5t112.5 187.5t180 127.5t241.5 52.5l33 160q5 23 25 42t47 19h88l-47 -230q78 -14 138.5 -47t107.5 -83zM639 857q-76 -8 -133 -40.5t-94.5 -85t-56 -123.5t-18.5 -157q0 -107 42.5 -176.5t120.5 -95.5z" unicode="¢"/>
<glyph glyph-name="sterling" d="M895 662q-3 -23 -23.5 -41.5t-50.5 -18.5h-381l-25 -206q-8 -69 -32 -119.5t-66 -93.5q39 9 78.5 14t78.5 5h598l-12 -99q-2 -18 -11.5 -36.5t-24.5 -33t-35 -24t-43 -9.5h-961l19 150q70 16 108.5 57.5t49.5 124.5l33 270h-154l12 96q3 22 23.5 40.5t49.5 18.5h88 l30 241q12 94 53 178.5t109 147.5t160.5 100t207.5 37q85 0 149 -19.5t110.5 -54t77.5 -82t51 -103.5l-103 -62q-31 -15 -59 -15q-3 0 -19.5 1t-39.5 30q-17 25 -33.5 44t-38 32.5t-50 20.5t-69.5 7q-53 0 -98 -18t-79 -51.5t-56 -81.5t-29 -109l-30 -243h448z" unicode="£"/>
<glyph glyph-name="currency" d="M930 209l-151 150q-42 -26 -91 -40t-103 -14q-52 0 -99.5 13t-89.5 38l-153 -152l-123 124l151 150q-26 42 -40.5 91.5t-14.5 103.5q0 53 13.5 100.5t38.5 89.5l-153 152l125 122l150 -149q42 26 91.5 40t103.5 14q52 0 100 -13.5t90 -38.5l152 152l123 -123l-151 -151 q26 -42 40.5 -91.5t14.5 -103.5q0 -52 -13.5 -99.5t-38.5 -89.5l152 -152zM398 673q0 -38 14.5 -72.5t40 -60t59.5 -40.5t73 -15t73.5 15t60 40.5t40 60t14.5 72.5q0 40 -14.5 74.5t-40 60t-60 40.5t-73.5 15t-73 -15t-59.5 -40.5t-40 -60t-14.5 -74.5z" unicode="¤"/>
<glyph glyph-name="yen" d="M738 631h281l-16 -132h-322l-11 -96h320l-16 -133h-321l-33 -270h-238l33 270h-324l18 133h322l12 96h-323l16 132h281l-301 814h200q32 0 51.5 -16.5t27.5 -42.5l166 -499q25 -83 32 -153q12 36 28.5 73t39.5 80l285 499q13 23 36.5 41t56.5 18h201z" unicode="¥"/>
<glyph glyph-name="brokenbar" horiz-adv-x="537" unicode="¦" d="M172 473h191v-808h-191v808zM172 1547h191v-809h-191v809z"/>
<glyph glyph-name="section" horiz-adv-x="941" unicode="§" d="M842 1248q-11 -16 -23 -22.5t-28 -6.5q-18 0 -36 10.5t-41 22.5t-53 22.5t-72 10.5q-41 0 -72 -11t-53 -29.5t-33 -43.5t-11 -52q0 -29 19.5 -52t51 -43.5t71.5 -39.5t82.5 -40t82.5 -46.5t71.5 -57.5t51 -73.5t19.5 -94.5q0 -89 -43 -163t-138 -118q33 -32 53 -74 t20 -98q0 -78 -28.5 -145.5t-82.5 -117.5t-133.5 -78.5t-181.5 -28.5q-48 0 -94.5 9.5t-87 26t-74.5 39.5t-58 50l67 90q11 17 26.5 25.5t38.5 8.5q22 0 39.5 -13t40.5 -28t56 -28t87 -13q81 0 126 40.5t45 106.5q0 49 -33.5 80.5t-84.5 57.5t-109.5 51t-109.5 59.5 t-84.5 85t-33.5 126.5q0 91 46.5 161.5t141.5 111.5q-33 34 -53.5 78.5t-20.5 106.5q0 70 26.5 133t77.5 111t126 76t171 28q99 0 175.5 -34.5t122.5 -90.5zM309 713q0 -39 24 -67.5t62 -52t85 -45.5t94 -47q42 24 60.5 57.5t18.5 74.5q0 40 -23 69t-60 52t-83 44t-91 46 q-48 -26 -67.5 -57.5t-19.5 -73.5z"/>
<glyph glyph-name="dieresis" horiz-adv-x="736" unicode="¨" d="M842 1292q0 -28 -11 -52.5t-29.5 -42.5t-44 -28.5t-53.5 -10.5q-29 0 -53.5 10.5t-43.5 28.5t-29.5 42.5t-10.5 52.5q0 29 10.5 54.5t29.5 44.5t43.5 30t53.5 11q28 0 53.5 -11t44 -30t29.5 -44.5t11 -54.5zM458 1292q0 -28 -11 -52.5t-30.5 -42.5t-45 -28.5t-53.5 -10.5 q-27 0 -51.5 10.5t-43.5 28.5t-30 42.5t-11 52.5q0 29 11 54.5t30 44.5t43.5 30t51.5 11q28 0 53.5 -11t45 -30t30.5 -44.5t11 -54.5z"/>
<glyph glyph-name="copyright" horiz-adv-x="1649" unicode="©" d="M235 723q0 -130 46.5 -243t128 -196.5t191.5 -131.5t237 -48t238 48t193 131.5t129 196.5t47 243q0 87 -21.5 167t-60.5 149.5t-94 126t-122.5 97t-145.5 62.5t-163 22t-162.5 -22t-144.5 -62.5t-121.5 -97t-93.5 -126t-60 -149.5t-21 -167zM100 723q0 102 26.5 196.5 t74.5 176.5t115.5 149.5t149.5 115.5t176 74.5t196 26.5t196.5 -26.5t176.5 -74.5t149.5 -115.5t115.5 -149.5t74.5 -176.5t26.5 -196.5q0 -101 -26.5 -195.5t-74.5 -176t-115.5 -149t-149.5 -115.5t-176.5 -74.5t-196.5 -26.5t-196 26.5t-176 74.5t-149.5 115.5t-115.5 149 t-74.5 175.5t-26.5 196zM1065 512q10 0 19 -4.5t15 -12.5l82 -87q-55 -71 -140.5 -108.5t-200.5 -37.5q-100 0 -181 35.5t-138.5 98t-88.5 147t-31 183.5q0 102 35 187t97 146.5t145.5 95.5t181.5 34q112 0 191.5 -37t133.5 -96l-65 -89q-6 -8 -16 -16t-26 -8q-17 0 -32 10 t-36.5 22t-53.5 22t-83 10q-60 0 -107 -19.5t-79.5 -56t-49.5 -88.5t-17 -117q0 -68 17.5 -120t48.5 -87.5t73.5 -54t92.5 -18.5q49 0 80.5 8t53.5 19t39.5 22t39.5 17z"/>
<glyph glyph-name="ordfeminine" horiz-adv-x="686" unicode="ª" d="M196 1367q59 51 124.5 74t137.5 23q50 0 89 -19t65 -52t35.5 -69t9.5 -67q0 -16 -2 -32l-47 -384h-80q-23 0 -34 7t-19 28l-7 37q-24 -20 -46 -35t-44.5 -25t-47.5 -15t-55 -5q-71 0 -112 37t-41 106q0 38 16.5 76t57.5 69.5t111 52.5t178 24l3 27q1 21 -1 40t-9.5 32.5 t-21.5 21.5t-36 8q-31 0 -51.5 -7.5t-37 -16t-31.5 -16t-34 -7.5t-29.5 9.5t-16.5 21.5zM473 1093q-54 -2 -89.5 -9.5t-57 -20t-30.5 -29.5t-9 -37q0 -26 15.5 -36.5t42.5 -10.5q34 0 61 13.5t57 42.5z"/>
<glyph glyph-name="guillemotleft" horiz-adv-x="835" unicode="«" d="M291 578q-19 -28 -36 -41q13 -13 26 -41l94 -239q13 -30 5 -55.5t-40 -39.5l-83 -36l-188 396l4 30l286 395l73 -37q31 -14 31 -42q0 -24 -19 -51zM593 578q-19 -28 -36 -41q13 -13 26 -41l94 -239q13 -30 5 -55.5t-40 -39.5l-83 -36l-188 396l4 30l286 395l73 -37 q31 -14 31 -42q0 -24 -19 -51z"/>
<glyph glyph-name="logicalnot" d="M979 300h-201l35 283h-681l21 177h883z" unicode="¬"/>
<glyph glyph-name="registered" horiz-adv-x="1650" unicode="®" d="M838 1462q102 0 196.5 -26.5t176.5 -74.5t149.5 -115.5t115.5 -149.5t74.5 -176.5t26.5 -196.5q0 -101 -26.5 -195.5t-74.5 -176t-115.5 -149t-149.5 -115.5t-176.5 -74.5t-196.5 -26.5t-196 26.5t-176 74.5t-149.5 115.5t-115.5 149t-74.5 175.5t-26.5 196t26.5 196.5 t74.5 176.5t115.5 149.5t149.5 115.5t176 74.5t196 26.5zM838 104q127 0 238 48t193 131.5t129 196.5t47 243q0 87 -21.5 167t-60.5 149.5t-94 126t-122.5 97t-145.5 62.5t-163 22t-162.5 -22t-144.5 -62.5t-121.5 -97t-93.5 -126t-60 -149.5t-21 -167q0 -130 46.5 -243 t128 -196.5t191.5 -131.5t237 -48zM833 1174q187 0 274 -67t87 -192q0 -89 -46 -155.5t-143 -96.5q23 -14 38.5 -33.5t29.5 -45.5l181 -307h-206q-44 0 -63 33l-144 263q-8 16 -21.5 22.5t-38.5 6.5h-55v-325h-214v897h321zM815 755q52 0 84.5 8.5t51 25.5t25.5 42t7 57 q0 31 -6 54.5t-22.5 39t-46 23t-75.5 7.5h-107v-257h89z"/>
<glyph glyph-name="degree" horiz-adv-x="825" unicode="°" d="M298 1121q0 -37 13 -69t36.5 -55.5t55 -37t69.5 -13.5q37 0 69 13.5t55 37t36 55.5t13 69q0 38 -13 70.5t-36 56.5t-55 38t-69 14q-38 0 -69.5 -14t-55 -38t-36.5 -56.5t-13 -70.5zM127 1123q0 71 26.5 133.5t73 108.5t109.5 72.5t136 26.5t136.5 -26.5t110 -72.5 t73.5 -108.5t27 -133.5q0 -69 -27 -131t-73.5 -108.5t-110 -73.5t-136.5 -27t-136 27t-109.5 73.5t-73 108.5t-26.5 131z"/>
<glyph glyph-name="plusminus" d="M1102 879l-22 -177h-391l-42 -344h-193l42 344h-388l21 177h389l44 357h193l-44 -357h391zM52 257h974l-23 -177h-972z" unicode="±"/>
<glyph glyph-name="uni00B2" horiz-adv-x="668" unicode="²" d="M597 1054q27 0 40.5 -14t9.5 -39l-11 -101h-539l8 56q2 16 10.5 34.5t25.5 32.5l236 208q28 24 52 50t42 52.5t28.5 53t10.5 51.5q0 32 -18 52t-50 20q-35 0 -58 -17.5t-40 -49.5q-16 -22 -33 -30.5t-52 -3.5l-92 15q15 57 43.5 98.5t67.5 69.5t87 41.5t103 13.5 q53 0 93.5 -14.5t68 -40t41.5 -60.5t14 -76q0 -46 -15 -84t-40.5 -71.5t-58.5 -64.5t-69 -63l-150 -136q29 8 56.5 12.5t50.5 4.5h138z"/>
<glyph glyph-name="uni00B3" horiz-adv-x="668" unicode="³" d="M176 1424q15 57 43.5 98.5t67 69.5t84.5 41.5t97 13.5q52 0 92 -14.5t67.5 -38.5t41.5 -56t14 -67q0 -67 -29.5 -112t-96.5 -69q50 -18 74.5 -50.5t24.5 -84.5q0 -67 -26 -116.5t-67.5 -82t-93.5 -48.5t-104 -16q-54 0 -95.5 10.5t-72 34t-50.5 61.5t-31 93l78 32 q30 11 54.5 5.5t32.5 -25.5q4 -11 10 -23.5t16.5 -23t26.5 -17t39 -6.5q51 0 81 31t30 76q0 43 -31 60.5t-107 17.5l14 119q85 1 119.5 24.5t34.5 76.5q0 32 -18 50.5t-54 18.5q-38 0 -61 -16.5t-37 -45.5q-16 -26 -32.5 -33.5t-48.5 -2.5z"/>
<glyph glyph-name="acute" horiz-adv-x="736" unicode="´" d="M851 1462l-257 -261q-19 -20 -36 -27.5t-43 -7.5h-136l158 243q17 26 37 39.5t57 13.5h220z"/>
<glyph glyph-name="uni00B5" horiz-adv-x="1235" unicode="µ" d="M1120 171l-12 -98q-5 -32 -48 -57.5t-115 -25.5q-39 0 -73.5 11.5t-61.5 35.5t-45.5 60.5t-25.5 86.5q-59 -81 -125.5 -125t-144.5 -44q-100 0 -156 53q2 -25 2 -50q0 -17 -1.5 -46.5t-6.5 -66.5l-30 -240h-122q-52 0 -74.5 24t-22.5 61q0 9 1 18l154 1258h247l-77 -629 q-1 -13 -1 -26q0 -66 29 -111t98 -45q70 0 123 41.5t91 116.5l81 653h247l-89 -723q-2 -17 -2 -32q0 -44 20.5 -72t68.5 -28h71z"/>
<glyph glyph-name="paragraph" horiz-adv-x="1466" unicode="¶" d="M1474 1239h-214l-178 -1448h-216l178 1448h-235l-178 -1448h-216l103 839q-94 0 -169.5 27t-129 74.5t-82.5 113.5t-29 145q0 93 37 176t104.5 145.5t161.5 98.5t208 36h881z"/>
<glyph glyph-name="cedilla" horiz-adv-x="736" unicode="¸" d="M412 -62q76 -20 106.5 -53.5t30.5 -77.5q0 -38 -18.5 -68.5t-51.5 -51.5t-79 -32t-101 -11q-38 0 -70 5.5t-63 16.5l32 77q9 23 31 23q14 0 27 -7.5t39 -7.5q31 0 46 14t15 34q0 26 -30 38t-93 22l78 176h138z"/>
<glyph glyph-name="uni00B9" horiz-adv-x="668" unicode="¹" d="M615 1024l-14 -124h-414l16 124h139l43 357l11 49l-88 -64q-12 -9 -24 -11t-22 0t-17.5 7t-11.5 11l-43 74l255 193h144l-76 -616h102z"/>
<glyph glyph-name="ordmasculine" horiz-adv-x="749" unicode="º" d="M419 968q75 0 108 59.5t33 165.5q0 63 -24.5 97t-72.5 34q-43 0 -71.5 -16.5t-45 -46t-23 -71t-6.5 -91.5q0 -64 25 -97.5t77 -33.5zM479 1463q61 0 110.5 -19t84 -54.5t53 -85.5t18.5 -111q0 -84 -26 -151t-71.5 -114.5t-108.5 -73t-137 -25.5q-62 0 -112 19t-85 54.5 t-54 86t-19 113.5q0 83 26 149.5t72.5 113.5t110 72.5t138.5 25.5z"/>
<glyph glyph-name="guillemotright" horiz-adv-x="834" unicode="»" d="M443 552l-3 -30l-285 -396l-73 36q-31 15 -31 44q0 23 17 51l155 239q17 27 35 40q-14 14 -25 42l-97 239q-11 29 -2.5 54.5t40.5 38.5l82 37zM746 552l-3 -30l-285 -396l-73 36q-31 15 -31 44q0 23 17 51l155 239q17 27 35 40q-14 14 -25 42l-97 239q-11 29 -2.5 54.5 t40.5 38.5l82 37z"/>
<glyph glyph-name="onequarter" horiz-adv-x="1415" unicode="¼" d="M357 71q-30 -42 -60.5 -56.5t-69.5 -14.5h-97l938 1363q29 39 61.5 60.5t76.5 21.5h98zM572 830l-14 -124h-414l16 124h139l43 357l11 49l-88 -64q-12 -9 -24 -11t-22 0t-17.5 7t-11.5 11l-43 74l255 193h144l-76 -616h102zM1307 295l-11 -100q-2 -12 -11.5 -22 t-25.5 -10h-63l-20 -163h-144l20 163h-290q-23 0 -35 10.5t-13 25.5l-6 85l394 455h165l-55 -444h95zM1069 295l20 163q3 24 8 52t13 59l-231 -274h190z"/>
<glyph glyph-name="onehalf" horiz-adv-x="1396" unicode="½" d="M322 71q-30 -42 -60.5 -56.5t-69.5 -14.5h-97l938 1363q29 39 61.5 60.5t76.5 21.5h98zM574 830l-14 -124h-414l16 124h139l43 357l11 49l-88 -64q-12 -9 -24 -11t-22 0t-17.5 7t-11.5 11l-43 74l255 193h144l-76 -616h102zM1208 154q27 0 40.5 -14t9.5 -39l-11 -101 h-539l8 56q2 16 10.5 34.5t25.5 32.5l236 208q28 24 52 50t42 52.5t28.5 53t10.5 51.5q0 32 -18 52t-50 20q-35 0 -58 -17.5t-40 -49.5q-16 -22 -33 -30.5t-52 -3.5l-92 15q15 57 43.5 98.5t67.5 69.5t87 41.5t103 13.5q53 0 93.5 -14.5t68 -40t41.5 -60.5t14 -76 q0 -46 -15 -84t-40.5 -71.5t-58.5 -64.5t-69 -63l-150 -136q29 8 56.5 12.5t50.5 4.5h138z"/>
<glyph glyph-name="threequarters" horiz-adv-x="1431" unicode="¾" d="M379 71q-30 -42 -60.5 -56.5t-69.5 -14.5h-97l938 1363q29 39 61.5 60.5t76.5 21.5h98zM168 1230q15 57 43.5 98.5t67 69.5t84.5 41.5t97 13.5q52 0 92 -14.5t67.5 -38.5t41.5 -56t14 -67q0 -67 -29.5 -112t-96.5 -69q50 -18 74.5 -50.5t24.5 -84.5q0 -67 -26 -116.5 t-67.5 -82t-93.5 -48.5t-104 -16q-54 0 -95.5 10.5t-72 34t-50.5 61.5t-31 93l78 32q30 11 54.5 5.5t32.5 -25.5q4 -11 10 -23.5t16.5 -23t26.5 -17t39 -6.5q51 0 81 31t30 76q0 43 -31 60.5t-107 17.5l14 119q85 1 119.5 24.5t34.5 76.5q0 32 -18 50.5t-54 18.5 q-38 0 -61 -16.5t-37 -45.5q-16 -26 -32.5 -33.5t-48.5 -2.5zM1325 295l-11 -100q-2 -12 -11.5 -22t-25.5 -10h-63l-20 -163h-144l20 163h-290q-23 0 -35 10.5t-13 25.5l-6 85l394 455h165l-55 -444h95zM1087 295l20 163q3 24 8 52t13 59l-231 -274h190z"/>
<glyph glyph-name="questiondown" horiz-adv-x="842" unicode="¿" d="M357 892q0 31 11.5 59t32 48t48.5 32t60 12q31 0 59 -12t48.5 -32t32.5 -48t12 -59q0 -32 -12 -59.5t-32.5 -47.5t-48.5 -31.5t-59 -11.5q-32 0 -60 11.5t-48.5 31.5t-32 47.5t-11.5 59.5zM684 -205q-36 -29 -76.5 -55.5t-87 -46.5t-99 -32t-111.5 -12q-74 0 -134 20 t-102 57.5t-64.5 91.5t-22.5 121q0 80 23 137t57.5 98t76.5 71t80.5 56t67.5 52.5t39 61.5l41 147h162l-4 -164q-1 -46 -24 -81t-57 -64.5t-73.5 -56.5t-73 -57.5t-55.5 -68t-22 -87.5q0 -35 10 -61.5t27.5 -44.5t41 -27t50.5 -9q51 0 88.5 13t64.5 28.5t46 28.5t34 13 q33 0 45 -28z"/>
<glyph glyph-name="Agrave" horiz-adv-x="1300" unicode="À" d="M1229 0h-201q-34 0 -52.5 16.5t-26.5 42.5l-60 302h-539l-134 -302q-11 -23 -35.5 -41t-56.5 -18h-204l699 1446h265zM852 544l-98 495q-6 34 -14 79t-16 98q-20 -53 -39 -98t-34 -80l-219 -494h420zM621 1861q18 0 31.5 -1t23.5 -5.5t18 -12.5t17 -22l169 -271h-164 q-27 0 -41.5 3.5t-30.5 20.5l-261 288h238z"/>
<glyph glyph-name="Aacute" horiz-adv-x="1300" unicode="Á" d="M1229 0h-201q-34 0 -52.5 16.5t-26.5 42.5l-60 302h-539l-134 -302q-11 -23 -35.5 -41t-56.5 -18h-204l699 1446h265zM852 544l-98 495q-6 34 -14 79t-16 98q-20 -53 -39 -98t-34 -80l-219 -494h420zM1195 1861l-330 -286q-21 -18 -37.5 -22t-42.5 -4h-164l223 271 q11 14 21 22.5t21.5 12.5t25 5t31.5 1h252z"/>
<glyph glyph-name="Acircumflex" horiz-adv-x="1300" unicode="Â" d="M1099 1549h-165q-14 0 -33.5 5.5t-36.5 32.5l-63 106q-3 6 -6 11.5t-6 11.5q-6 -10 -16 -23l-87 -106q-25 -27 -45 -32.5t-34 -5.5h-158l253 275h206zM1229 0h-201q-34 0 -52.5 16.5t-26.5 42.5l-60 302h-539l-134 -302q-11 -23 -35.5 -41t-56.5 -18h-204l699 1446h265z M852 544l-98 495q-6 34 -14 79t-16 98q-20 -53 -39 -98t-34 -80l-219 -494h420z"/>
<glyph glyph-name="Atilde" horiz-adv-x="1300" unicode="Ã" d="M1229 0h-201q-34 0 -52.5 16.5t-26.5 42.5l-60 302h-539l-134 -302q-11 -23 -35.5 -41t-56.5 -18h-204l699 1446h265zM852 544l-98 495q-6 34 -14 79t-16 98q-20 -53 -39 -98t-34 -80l-219 -494h420zM903 1699q20 0 36 9t27 22.5t18 30t9 32.5h138q-6 -50 -23.5 -95.5 t-45.5 -81t-66 -56.5t-84 -21q-47 0 -79.5 16t-58.5 34.5t-48 34.5t-47 16q-21 0 -36.5 -9t-26.5 -23t-17.5 -31t-8.5 -33h-141q6 49 24 95.5t46.5 82t66 57t83.5 21.5q47 0 80.5 -16t59 -34.5t47.5 -34.5t47 -16z"/>
<glyph glyph-name="Adieresis" horiz-adv-x="1300" unicode="Ä" d="M1229 0h-201q-34 0 -52.5 16.5t-26.5 42.5l-60 302h-539l-134 -302q-11 -23 -35.5 -41t-56.5 -18h-204l699 1446h265zM852 544l-98 495q-6 34 -14 79t-16 98q-20 -53 -39 -98t-34 -80l-219 -494h420zM1107 1665q0 -28 -11 -52.5t-29.5 -43t-44 -29t-54.5 -10.5 q-28 0 -53 10.5t-43.5 29t-29.5 43t-11 52.5t11 53.5t29.5 44.5t43.5 30t53 11q29 0 54.5 -11t44 -30t29.5 -44.5t11 -53.5zM708 1665q0 -28 -11 -52.5t-30.5 -43t-45 -29t-53.5 -10.5q-27 0 -51.5 10.5t-43.5 29t-30 43t-11 52.5t11 53.5t30 44.5t43.5 30t51.5 11 q28 0 53.5 -11t45 -30t30.5 -44.5t11 -53.5z"/>
<glyph glyph-name="Aring" horiz-adv-x="1300" unicode="Å" d="M1229 0h-201q-34 0 -52.5 16.5t-26.5 42.5l-60 302h-539l-134 -302q-11 -23 -35.5 -41t-56.5 -18h-204l699 1446h265zM852 544l-98 495q-6 34 -14 79t-16 98q-20 -53 -39 -98t-34 -80l-219 -494h420zM703 1706q-1 -7 -1 -13q-1 -30 15 -51q18 -25 60 -25q36 0 61 25 t30 64q1 7 1 14q0 32 -16 52q-20 24 -57 25q-40 0 -64 -24.5t-29 -66.5zM594 1706q5 43 24.5 78.5t48.5 60.5t64.5 39t72.5 14q39 0 73 -14t58 -39q22 -25 34 -61q8 -25 9 -53q0 -12 -2 -25q-5 -42 -24 -76t-48 -59t-66 -38.5t-76 -13.5q-37 0 -70 13.5t-56 38.5t-35 59 q-8 24 -8 52q0 12 1 24z"/>
<glyph glyph-name="AE" horiz-adv-x="1743" unicode="Æ" d="M1099 1239v-412h467l-24 -199h-443v-421h516l-26 -207h-735v361h-466l-165 -302q-14 -23 -40 -41t-59 -18h-202l838 1446h1007l-25 -207h-643zM854 544v691q-35 -89 -74 -157l-292 -534h366z"/>
<glyph glyph-name="Ccedilla" horiz-adv-x="1241" unicode="Ç" d="M577 -13q-119 11 -211 62.5t-155.5 134t-96.5 192t-33 237.5q0 125 27 236.5t77 206t119.5 169.5t155 128t184 81t205.5 28q79 0 144 -14.5t117.5 -40.5t95 -62.5t76.5 -81.5l-90 -108q-10 -12 -23.5 -21t-33.5 -9q-22 0 -42 18t-50.5 39.5t-79 39.5t-127.5 18 q-104 0 -193.5 -42.5t-155.5 -121.5t-103.5 -190.5t-37.5 -250.5q0 -101 25.5 -181t71 -135.5t107.5 -85t135 -29.5q61 0 106 9.5t79 24.5t57.5 31.5t41.5 31.5t32 24.5t28 9.5q13 0 21 -5t13 -10l91 -113q-83 -95 -191 -151t-245 -69l-19 -49q76 -20 106.5 -53.5 t30.5 -77.5q0 -38 -18.5 -68.5t-51.5 -51.5t-79 -32t-101 -11q-38 0 -70 5.5t-63 16.5l32 77q9 23 31 23q14 0 27 -7.5t39 -7.5q31 0 46 14t15 34q0 26 -30 38t-93 22z"/>
<glyph glyph-name="Egrave" horiz-adv-x="1073" unicode="È" d="M491 1239l-51 -411h457l-25 -199h-457l-52 -422h584l-26 -207h-844l178 1446h843l-26 -207h-581zM595 1861q18 0 31.5 -1t23.5 -5.5t18 -12.5t17 -22l169 -271h-164q-27 0 -41.5 3.5t-30.5 20.5l-261 288h238z"/>
<glyph glyph-name="Eacute" horiz-adv-x="1073" unicode="É" d="M491 1239l-51 -411h457l-25 -199h-457l-52 -422h584l-26 -207h-844l178 1446h843l-26 -207h-581zM1140 1861l-330 -286q-21 -18 -37.5 -22t-42.5 -4h-164l223 271q11 14 21 22.5t21.5 12.5t25 5t31.5 1h252z"/>
<glyph glyph-name="Ecircumflex" horiz-adv-x="1073" unicode="Ê" d="M1022 1549h-165q-14 0 -33.5 5.5t-36.5 32.5l-63 106q-3 6 -6 11.5t-6 11.5q-6 -10 -16 -23l-87 -106q-25 -27 -45 -32.5t-34 -5.5h-158l253 275h206zM491 1239l-51 -411h457l-25 -199h-457l-52 -422h584l-26 -207h-844l178 1446h843l-26 -207h-581z"/>
<glyph glyph-name="Edieresis" horiz-adv-x="1073" unicode="Ë" d="M491 1239l-51 -411h457l-25 -199h-457l-52 -422h584l-26 -207h-844l178 1446h843l-26 -207h-581zM1043 1665q0 -28 -11 -52.5t-29.5 -43t-44 -29t-54.5 -10.5q-28 0 -53 10.5t-43.5 29t-29.5 43t-11 52.5t11 53.5t29.5 44.5t43.5 30t53 11q29 0 54.5 -11t44 -30 t29.5 -44.5t11 -53.5zM644 1665q0 -28 -11 -52.5t-30.5 -43t-45 -29t-53.5 -10.5q-27 0 -51.5 10.5t-43.5 29t-30 43t-11 52.5t11 53.5t30 44.5t43.5 30t51.5 11q28 0 53.5 -11t45 -30t30.5 -44.5t11 -53.5z"/>
<glyph glyph-name="Igrave" horiz-adv-x="564" unicode="Ì" d="M338 0h-261l176 1446h261zM264 1861q18 0 31.5 -1t23.5 -5.5t18 -12.5t17 -22l169 -271h-164q-27 0 -41.5 3.5t-30.5 20.5l-261 288h238z"/>
<glyph glyph-name="Iacute" horiz-adv-x="564" unicode="Í" d="M338 0h-261l176 1446h261zM834 1861l-330 -286q-21 -18 -37.5 -22t-42.5 -4h-164l223 271q11 14 21 22.5t21.5 12.5t25 5t31.5 1h252z"/>
<glyph glyph-name="Icircumflex" horiz-adv-x="564" unicode="Î" d="M724 1549h-165q-14 0 -33.5 5.5t-36.5 32.5l-63 106q-3 6 -6 11.5t-6 11.5q-6 -10 -16 -23l-87 -106q-25 -27 -45 -32.5t-34 -5.5h-158l253 275h206zM338 0h-261l176 1446h261z"/>
<glyph glyph-name="Idieresis" horiz-adv-x="564" unicode="Ï" d="M338 0h-261l176 1446h261zM746 1665q0 -28 -11 -52.5t-29.5 -43t-44 -29t-54.5 -10.5q-28 0 -53 10.5t-43.5 29t-29.5 43t-11 52.5t11 53.5t29.5 44.5t43.5 30t53 11q29 0 54.5 -11t44 -30t29.5 -44.5t11 -53.5zM347 1665q0 -28 -11 -52.5t-30.5 -43t-45 -29t-53.5 -10.5 q-27 0 -51.5 10.5t-43.5 29t-30 43t-11 52.5t11 53.5t30 44.5t43.5 30t51.5 11q28 0 53.5 -11t45 -30t30.5 -44.5t11 -53.5z"/>
<glyph glyph-name="Eth" horiz-adv-x="1430" unicode="Ð" d="M779 1446q138 0 248.5 -47t188 -130t118.5 -198t41 -251q0 -180 -58 -331t-161 -259.5t-245 -169t-309 -60.5h-510l80 653h-164l19 148h163l79 645h510zM628 207q109 0 198 42t152 120.5t97 191t34 253.5q0 97 -24 176t-69.5 134.5t-111.5 85.5t-150 30h-250l-53 -439 h329l-18 -148h-329l-54 -446h249z"/>
<glyph glyph-name="Ntilde" horiz-adv-x="1435" unicode="Ñ" d="M1386 1446l-178 -1446h-134q-30 0 -49.5 10.5t-36.5 34.5l-560 988q-2 -25 -4 -47.5t-4 -42.5l-114 -943h-229l178 1446h136q17 0 28.5 -1.5t20.5 -6t16 -12.5t15 -22l563 -987q2 30 4.5 57.5t5.5 50.5l113 921h229zM962 1699q20 0 36 9t27 22.5t18 30t9 32.5h138 q-6 -50 -23.5 -95.5t-45.5 -81t-66 -56.5t-84 -21q-47 0 -79.5 16t-58.5 34.5t-48 34.5t-47 16q-21 0 -36.5 -9t-26.5 -23t-17.5 -31t-8.5 -33h-141q6 49 24 95.5t46.5 82t66 57t83.5 21.5q47 0 80.5 -16t59 -34.5t47.5 -34.5t47 -16z"/>
<glyph glyph-name="Ograve" horiz-adv-x="1506" unicode="Ò" d="M1187 814q0 98 -24.5 178t-71 137t-113.5 88t-151 31q-108 0 -196.5 -44t-151.5 -125t-97.5 -195t-34.5 -253q0 -98 24 -178t70 -136.5t112.5 -87t151.5 -30.5q109 0 198 44t152 124t97.5 193.5t34.5 253.5zM1453 820q0 -120 -26.5 -228.5t-75.5 -201.5t-119 -168 t-156.5 -128t-187.5 -81.5t-212 -28.5q-138 0 -248 49t-187.5 135t-118.5 203t-41 254q0 120 26.5 228.5t76 201.5t119 168t156 128.5t187.5 82t213 28.5q138 0 248 -49t187 -135t118 -203.5t41 -254.5zM754 1861q18 0 31.5 -1t23.5 -5.5t18 -12.5t17 -22l169 -271h-164 q-27 0 -41.5 3.5t-30.5 20.5l-261 288h238z"/>
<glyph glyph-name="Oacute" horiz-adv-x="1506" unicode="Ó" d="M1187 814q0 98 -24.5 178t-71 137t-113.5 88t-151 31q-108 0 -196.5 -44t-151.5 -125t-97.5 -195t-34.5 -253q0 -98 24 -178t70 -136.5t112.5 -87t151.5 -30.5q109 0 198 44t152 124t97.5 193.5t34.5 253.5zM1453 820q0 -120 -26.5 -228.5t-75.5 -201.5t-119 -168 t-156.5 -128t-187.5 -81.5t-212 -28.5q-138 0 -248 49t-187.5 135t-118.5 203t-41 254q0 120 26.5 228.5t76 201.5t119 168t156 128.5t187.5 82t213 28.5q138 0 248 -49t187 -135t118 -203.5t41 -254.5zM1297 1861l-330 -286q-21 -18 -37.5 -22t-42.5 -4h-164l223 271 q11 14 21 22.5t21.5 12.5t25 5t31.5 1h252z"/>
<glyph glyph-name="Ocircumflex" horiz-adv-x="1506" unicode="Ô" d="M1194 1549h-165q-14 0 -33.5 5.5t-36.5 32.5l-63 106q-3 6 -6 11.5t-6 11.5q-6 -10 -16 -23l-87 -106q-25 -27 -45 -32.5t-34 -5.5h-158l253 275h206zM1187 814q0 98 -24.5 178t-71 137t-113.5 88t-151 31q-108 0 -196.5 -44t-151.5 -125t-97.5 -195t-34.5 -253 q0 -98 24 -178t70 -136.5t112.5 -87t151.5 -30.5q109 0 198 44t152 124t97.5 193.5t34.5 253.5zM1453 820q0 -120 -26.5 -228.5t-75.5 -201.5t-119 -168t-156.5 -128t-187.5 -81.5t-212 -28.5q-138 0 -248 49t-187.5 135t-118.5 203t-41 254q0 120 26.5 228.5t76 201.5 t119 168t156 128.5t187.5 82t213 28.5q138 0 248 -49t187 -135t118 -203.5t41 -254.5z"/>
<glyph glyph-name="Otilde" horiz-adv-x="1506" unicode="Õ" d="M1187 814q0 98 -24.5 178t-71 137t-113.5 88t-151 31q-108 0 -196.5 -44t-151.5 -125t-97.5 -195t-34.5 -253q0 -98 24 -178t70 -136.5t112.5 -87t151.5 -30.5q109 0 198 44t152 124t97.5 193.5t34.5 253.5zM1453 820q0 -120 -26.5 -228.5t-75.5 -201.5t-119 -168 t-156.5 -128t-187.5 -81.5t-212 -28.5q-138 0 -248 49t-187.5 135t-118.5 203t-41 254q0 120 26.5 228.5t76 201.5t119 168t156 128.5t187.5 82t213 28.5q138 0 248 -49t187 -135t118 -203.5t41 -254.5zM998 1699q20 0 36 9t27 22.5t18 30t9 32.5h138q-6 -50 -23.5 -95.5 t-45.5 -81t-66 -56.5t-84 -21q-47 0 -79.5 16t-58.5 34.5t-48 34.5t-47 16q-21 0 -36.5 -9t-26.5 -23t-17.5 -31t-8.5 -33h-141q6 49 24 95.5t46.5 82t66 57t83.5 21.5q47 0 80.5 -16t59 -34.5t47.5 -34.5t47 -16z"/>
<glyph glyph-name="Odieresis" horiz-adv-x="1506" unicode="Ö" d="M1187 814q0 98 -24.5 178t-71 137t-113.5 88t-151 31q-108 0 -196.5 -44t-151.5 -125t-97.5 -195t-34.5 -253q0 -98 24 -178t70 -136.5t112.5 -87t151.5 -30.5q109 0 198 44t152 124t97.5 193.5t34.5 253.5zM1453 820q0 -120 -26.5 -228.5t-75.5 -201.5t-119 -168 t-156.5 -128t-187.5 -81.5t-212 -28.5q-138 0 -248 49t-187.5 135t-118.5 203t-41 254q0 120 26.5 228.5t76 201.5t119 168t156 128.5t187.5 82t213 28.5q138 0 248 -49t187 -135t118 -203.5t41 -254.5zM1241 1665q0 -28 -11 -52.5t-29.5 -43t-44 -29t-54.5 -10.5 q-28 0 -53 10.5t-43.5 29t-29.5 43t-11 52.5t11 53.5t29.5 44.5t43.5 30t53 11q29 0 54.5 -11t44 -30t29.5 -44.5t11 -53.5zM842 1665q0 -28 -11 -52.5t-30.5 -43t-45 -29t-53.5 -10.5q-27 0 -51.5 10.5t-43.5 29t-30 43t-11 52.5t11 53.5t30 44.5t43.5 30t51.5 11 q28 0 53.5 -11t45 -30t30.5 -44.5t11 -53.5z"/>
<glyph glyph-name="multiply" d="M713 672l300 -342l-141 -125l-300 341l-386 -343l-110 125l386 344l-289 329l141 125l289 -329l367 327l111 -125z" unicode="×"/>
<glyph glyph-name="Oslash" horiz-adv-x="1506" unicode="Ø" d="M1310 1259q69 -85 106 -196.5t37 -242.5q0 -120 -26.5 -228.5t-75.5 -201.5t-119 -168t-156.5 -128t-187.5 -81.5t-212 -28.5q-90 0 -167.5 21t-142.5 60l-84 -106q-33 -38 -73.5 -54t-77.5 -16h-102l216 273q-80 87 -122 205t-42 258q0 120 26.5 228.5t76 201.5t119 168 t156 128.5t187.5 82t213 28.5q99 0 183 -25t153 -73l65 82q15 17 27 29.5t24.5 20t27.5 11t36 3.5h133zM1046 1175q-44 35 -98.5 54t-120.5 19q-108 0 -196.5 -44t-151.5 -125t-97.5 -195t-34.5 -253q0 -78 15.5 -144.5t44.5 -119.5zM513 252q40 -26 87.5 -39.5t104.5 -13.5 q109 0 198 44t152 124t97.5 193.5t34.5 253.5q0 67 -11.5 125.5t-33.5 107.5z"/>
<glyph glyph-name="Ugrave" horiz-adv-x="1383" unicode="Ù" d="M642 208q70 0 128.5 26.5t102.5 75t72.5 116.5t38.5 151l106 869h260l-107 -869q-16 -128 -68 -237t-133.5 -188t-190 -123.5t-237.5 -44.5t-226.5 44.5t-159.5 123.5t-87 188q-15 66 -15 140q0 47 6 97l104 869h260l-106 -868q-5 -39 -5 -74q1 -42 7 -78 q12 -68 44 -116.5t83.5 -75t122.5 -26.5zM684 1861q18 0 31.5 -1t23.5 -5.5t18 -12.5t17 -22l169 -271h-164q-27 0 -41.5 3.5t-30.5 20.5l-261 288h238z"/>
<glyph glyph-name="Uacute" horiz-adv-x="1383" unicode="Ú" d="M642 208q70 0 128.5 26.5t102.5 75t72.5 116.5t38.5 151l106 869h260l-107 -869q-16 -128 -68 -237t-133.5 -188t-190 -123.5t-237.5 -44.5t-226.5 44.5t-159.5 123.5t-87 188q-15 66 -15 140q0 47 6 97l104 869h260l-106 -868q-5 -39 -5 -74q1 -42 7 -78 q12 -68 44 -116.5t83.5 -75t122.5 -26.5zM1230 1861l-330 -286q-21 -18 -37.5 -22t-42.5 -4h-164l223 271q11 14 21 22.5t21.5 12.5t25 5t31.5 1h252z"/>
<glyph glyph-name="Ucircumflex" horiz-adv-x="1383" unicode="Û" d="M1130 1549h-165q-14 0 -33.5 5.5t-36.5 32.5l-63 106q-3 6 -6 11.5t-6 11.5q-6 -10 -16 -23l-87 -106q-25 -27 -45 -32.5t-34 -5.5h-158l253 275h206zM642 208q70 0 128.5 26.5t102.5 75t72.5 116.5t38.5 151l106 869h260l-107 -869q-16 -128 -68 -237t-133.5 -188 t-190 -123.5t-237.5 -44.5t-226.5 44.5t-159.5 123.5t-82 166.5t-20 161.5q0 47 6 97l104 869h260l-106 -868q-5 -39 -5 -74q0 -41 9 -93.5t41.5 -101t84 -75t122.5 -26.5z"/>
<glyph glyph-name="Udieresis" horiz-adv-x="1383" unicode="Ü" d="M642 208q70 0 128.5 26.5t102.5 75t72.5 116.5t38.5 151l106 869h260l-107 -869q-16 -128 -68 -237t-133.5 -188t-190 -123.5t-237.5 -44.5t-226.5 44.5t-159.5 123.5t-87 188q-15 66 -15 140q0 47 6 97l104 869h260l-106 -868q-5 -39 -5 -74q1 -42 7 -78 q12 -68 44 -116.5t83.5 -75t122.5 -26.5zM1165 1665q0 -28 -11 -52.5t-29.5 -43t-44 -29t-54.5 -10.5q-28 0 -53 10.5t-43.5 29t-29.5 43t-11 52.5t11 53.5t29.5 44.5t43.5 30t53 11q29 0 54.5 -11t44 -30t29.5 -44.5t11 -53.5zM766 1665q0 -28 -11 -52.5t-30.5 -43t-45 -29 t-53.5 -10.5q-27 0 -51.5 10.5t-43.5 29t-30 43t-11 52.5t11 53.5t30 44.5t43.5 30t51.5 11q28 0 53.5 -11t45 -30t30.5 -44.5t11 -53.5z"/>
<glyph glyph-name="Yacute" horiz-adv-x="1215" unicode="Ý" d="M731 564l-70 -564h-259l70 562l-377 884h231q34 0 53 -16t28 -43l186 -500q13 -37 22 -71.5t16 -66.5q16 33 34.5 66.5t40.5 71.5l311 500q14 23 37 41t55 18h215zM1140 1861l-330 -286q-21 -18 -37.5 -22t-42.5 -4h-164l223 271q11 14 21 22.5t21.5 12.5t25 5t31.5 1 h252z"/>
<glyph glyph-name="Thorn" horiz-adv-x="1157" unicode="Þ" d="M664 1194q121 0 209.5 -29.5t146 -82t85 -125t27.5 -158.5q0 -117 -36.5 -215t-109.5 -169.5t-182.5 -111.5t-254.5 -40h-182l-32 -263h-258l176 1446h260l-31 -252h182zM574 464q77 0 133 23t92.5 64.5t54 99t17.5 126.5q0 49 -14 89t-43 68t-72.5 43.5t-103.5 15.5 h-181l-65 -529h182z"/>
<glyph glyph-name="germandbls" horiz-adv-x="1215" unicode="ß" d="M248 1014q27 90 77 172.5t119 145.5t155 100.5t184 37.5q102 0 171.5 -30.5t113 -76t62.5 -100t19 -102.5q0 -66 -21.5 -112.5t-53 -80.5t-69 -58.5t-69 -47.5t-53 -47.5t-21.5 -57.5q0 -30 20 -52.5t50 -43.5t65.5 -44.5t65.5 -56.5t50 -78.5t20 -109.5q0 -95 -34 -167 t-91 -121.5t-131 -74.5t-154 -25q-42 0 -82.5 9.5t-77 26.5t-68 40t-56.5 50l67 91q11 15 27 24t38 9t40 -13t38.5 -29t47.5 -29t67 -13q29 0 55 12t45 33.5t30 50.5t11 62q0 41 -22 69.5t-55.5 51.5t-72 44.5t-72 50t-55.5 67t-22 96.5q0 67 23 113.5t58 81t75 62.5 t75 57.5t58 65t23 86.5q0 28 -9.5 54.5t-29.5 46t-51.5 31.5t-76.5 12q-60 0 -109 -34t-85.5 -90.5t-60.5 -129.5t-33 -151l-103 -850l-51 -188q-15 -48 -44 -74.5t-83 -26.5h-99l133 1088l-92 16q-27 6 -41 18t-14 31q0 5 1 10l11 98h167z"/>
<glyph glyph-name="agrave" horiz-adv-x="1042" unicode="à" d="M652 214q-68 -105 -153.5 -167t-186.5 -62q-58 0 -108.5 23t-88 68.5t-59 114t-21.5 160.5t23 179t65.5 163.5t102.5 140.5t134.5 110t161 71.5t182.5 25.5q69 0 138.5 -10t135.5 -36l-123 -995h-131q-47 0 -63.5 23.5t-16.5 58.5zM720 864q-14 1 -26.5 1.5t-24.5 0.5 q-83 0 -154 -38t-122.5 -102.5t-81 -150t-29.5 -180.5q0 -108 34 -158t93 -50q41 0 80.5 28.5t75 78t65 116.5t51.5 144zM642 1462q36 0 53 -13.5t28 -39.5l103 -243h-129q-26 0 -41.5 7.5t-29.5 27.5l-198 261h214z"/>
<glyph glyph-name="aacute" horiz-adv-x="1042" unicode="á" d="M652 214q-68 -105 -153.5 -167t-186.5 -62q-58 0 -108.5 23t-88 68.5t-59 114t-21.5 160.5t23 179t65.5 163.5t102.5 140.5t134.5 110t161 71.5t182.5 25.5q69 0 138.5 -10t135.5 -36l-123 -995h-131q-47 0 -63.5 23.5t-16.5 58.5zM720 864q-14 1 -26.5 1.5t-24.5 0.5 q-83 0 -154 -38t-122.5 -102.5t-81 -150t-29.5 -180.5q0 -108 34 -158t93 -50q41 0 80.5 28.5t75 78t65 116.5t51.5 144zM1069 1462l-257 -261q-19 -20 -36 -27.5t-43 -7.5h-136l158 243q17 26 37 39.5t57 13.5h220z"/>
<glyph glyph-name="acircumflex" horiz-adv-x="1042" unicode="â" d="M652 214q-68 -105 -153.5 -167t-186.5 -62q-58 0 -108.5 23t-88 68.5t-59 114t-21.5 160.5t23 179t65.5 163.5t102.5 140.5t134.5 110t161 71.5t182.5 25.5q69 0 138.5 -10t135.5 -36l-123 -995h-131q-47 0 -63.5 23.5t-16.5 58.5zM720 864q-14 1 -26.5 1.5t-24.5 0.5 q-83 0 -154 -38t-122.5 -102.5t-81 -150t-29.5 -180.5q0 -108 34 -158t93 -50q41 0 80.5 28.5t75 78t65 116.5t51.5 144zM994 1168h-152q-13 0 -25.5 5.5t-24.5 19.5l-78 104q-5 5 -8.5 11t-8.5 13q-5 -7 -11 -13l-11 -11l-103 -104q-13 -13 -27 -19t-28 -6h-158l242 278 h214z"/>
<glyph glyph-name="atilde" horiz-adv-x="1042" unicode="ã" d="M652 214q-68 -105 -153.5 -167t-186.5 -62q-58 0 -108.5 23t-88 68.5t-59 114t-21.5 160.5t23 179t65.5 163.5t102.5 140.5t134.5 110t161 71.5t182.5 25.5q69 0 138.5 -10t135.5 -36l-123 -995h-131q-47 0 -63.5 23.5t-16.5 58.5zM720 864q-14 1 -26.5 1.5t-24.5 0.5 q-83 0 -154 -38t-122.5 -102.5t-81 -150t-29.5 -180.5q0 -108 34 -158t93 -50q41 0 80.5 28.5t75 78t65 116.5t51.5 144zM808 1359q27 0 44.5 16.5t22.5 59.5h139q-7 -56 -26.5 -101.5t-48 -78t-65 -50t-77.5 -17.5q-33 0 -60.5 13t-50.5 28t-43.5 28t-38.5 13 q-27 0 -44 -17.5t-22 -59.5h-140q6 56 26 101.5t49 78t65.5 50.5t77.5 18q33 0 60.5 -13t51 -28t43 -28t37.5 -13z"/>
<glyph glyph-name="adieresis" horiz-adv-x="1042" unicode="ä" d="M652 214q-68 -105 -153.5 -167t-186.5 -62q-58 0 -108.5 23t-88 68.5t-59 114t-21.5 160.5t23 179t65.5 163.5t102.5 140.5t134.5 110t161 71.5t182.5 25.5q69 0 138.5 -10t135.5 -36l-123 -995h-131q-47 0 -63.5 23.5t-16.5 58.5zM720 864q-14 1 -26.5 1.5t-24.5 0.5 q-83 0 -154 -38t-122.5 -102.5t-81 -150t-29.5 -180.5q0 -108 34 -158t93 -50q41 0 80.5 28.5t75 78t65 116.5t51.5 144zM1044 1292q0 -28 -11 -52.5t-29.5 -42.5t-44 -28.5t-53.5 -10.5q-29 0 -53.5 10.5t-43.5 28.5t-29.5 42.5t-10.5 52.5q0 29 10.5 54.5t29.5 44.5 t43.5 30t53.5 11q28 0 53.5 -11t44 -30t29.5 -44.5t11 -54.5zM660 1292q0 -28 -11 -52.5t-30.5 -42.5t-45 -28.5t-53.5 -10.5q-27 0 -51.5 10.5t-43.5 28.5t-30 42.5t-11 52.5q0 29 11 54.5t30 44.5t43.5 30t51.5 11q28 0 53.5 -11t45 -30t30.5 -44.5t11 -54.5z"/>
<glyph glyph-name="aring" horiz-adv-x="1042" unicode="å" d="M652 214q-68 -105 -153.5 -167t-186.5 -62q-58 0 -108.5 23t-88 68.5t-59 114t-21.5 160.5t23 179t65.5 163.5t102.5 140.5t134.5 110t161 71.5t182.5 25.5q69 0 138.5 -10t135.5 -36l-123 -995h-131q-47 0 -63.5 23.5t-16.5 58.5zM720 864q-14 1 -26.5 1.5t-24.5 0.5 q-83 0 -154 -38t-122.5 -102.5t-81 -150t-29.5 -180.5q0 -108 34 -158t93 -50q41 0 80.5 28.5t75 78t65 116.5t51.5 144zM649 1325q-1 -8 -1 -16q1 -27 15 -47q18 -26 59 -26q37 0 61.5 25.5t29.5 63.5q1 8 1 16q0 31 -16 51q-20 24 -56 24q-41 0 -64.5 -24.5t-28.5 -66.5z M525 1325q5 46 26 84t52 65t69.5 42t79.5 15q42 0 78 -15t61.5 -42t37.5 -65q9 -27 9 -58q0 -12 -1 -26q-5 -45 -26 -82t-52.5 -63.5t-71 -41t-81.5 -14.5q-41 0 -76 14.5t-60 41t-37 63.5q-9 26 -9 57q0 12 1 25z"/>
<glyph glyph-name="ae" horiz-adv-x="1494" unicode="æ" d="M1423 190q-53 -53 -103.5 -92t-104 -64t-112.5 -37t-129 -12q-96 0 -176.5 49.5t-125.5 151.5q-34 -54 -77.5 -92t-92.5 -62.5t-100.5 -36t-100.5 -11.5q-148 0 -222.5 63.5t-74.5 183.5q0 67 29 132.5t99 118t187 86.5t292 39l5 41q4 30 4 55q0 65 -28.5 108t-102.5 43 q-54 0 -91.5 -14.5t-67 -31.5t-54 -31.5t-53.5 -14.5q-24 0 -39.5 12.5t-24.5 30.5l-33 77q91 81 186 121.5t204 40.5q105 0 167.5 -41t90.5 -114q62 72 145.5 112t188.5 40q64 0 119 -20.5t95.5 -56.5t63.5 -84t23 -102q0 -37 -10.5 -74t-36 -72t-68.5 -65.5t-108.5 -54 t-156.5 -38t-211 -17.5v-8q0 -141 54 -207t151 -66q67 0 110 17.5t74 38.5t55.5 38.5t53.5 17.5q12 0 23.5 -6t20.5 -16zM1077 869q-52 0 -93 -19t-72 -54.5t-51.5 -85.5t-30.5 -112q112 9 183 25t111 38t55 49t15 56q0 45 -28.5 74t-88.5 29zM593 461q-105 -5 -174 -21.5 t-110.5 -43t-58 -61t-16.5 -74.5q0 -57 29.5 -85.5t83.5 -28.5q44 0 84 15.5t71.5 48.5t53.5 83.5t31 120.5z"/>
<glyph glyph-name="ccedilla" horiz-adv-x="907" unicode="ç" d="M804 803q-8 -9 -20 -16.5t-26 -7.5q-17 0 -30.5 10.5t-32 22.5t-46 22.5t-71.5 10.5q-57 0 -109 -31t-92 -88t-63.5 -137t-23.5 -177q0 -113 50 -174.5t136 -61.5q38 0 67 8t51.5 19.5t39.5 25t32 25t28.5 19.5t29.5 8q13 0 24.5 -6.5t20.5 -16.5l62 -76q-45 -50 -86 -85 t-83 -58.5t-87 -35.5t-96 -16l-19 -49q76 -20 106.5 -53.5t30.5 -77.5q0 -38 -18.5 -68.5t-51.5 -51.5t-79 -32t-101 -11q-38 0 -70 5.5t-63 16.5l32 77q9 23 31 23q14 0 27 -7.5t39 -7.5q31 0 46 14t15 34q0 26 -30 38t-93 22l59 133q-71 13 -126 49t-93 90t-58 125.5 t-20 156.5q0 83 18 162t52 149t82 128t108 100t130.5 65.5t149.5 23.5q102 0 173.5 -36t126.5 -108z"/>
<glyph glyph-name="egrave" horiz-adv-x="974" unicode="è" d="M283 418q0 -242 205 -242q44 0 78 8.5t59.5 20.5t46 27t38 27t34.5 20.5t37 8.5q12 0 23.5 -6t20.5 -16l63 -76q-53 -53 -104 -92t-104 -64t-112 -37t-128 -12q-90 0 -163 30.5t-125 86t-80.5 134t-28.5 175.5q0 81 17.5 159t50.5 148t81 129t108.5 102t133 67t155.5 24 q80 0 140.5 -23t101 -59.5t60.5 -81.5t20 -88q0 -69 -27.5 -126t-98 -102t-192.5 -77.5t-310 -51.5v-13zM575 868q-50 0 -93 -20.5t-77.5 -57.5t-60 -88.5t-40.5 -112.5q124 17 199.5 37.5t116.5 44t54.5 51t13.5 57.5q0 15 -6.5 31t-20 28.5t-35 21t-51.5 8.5zM515 1462 q36 0 53 -13.5t28 -39.5l103 -243h-129q-26 0 -41.5 7.5t-29.5 27.5l-198 261h214z"/>
<glyph glyph-name="eacute" horiz-adv-x="974" unicode="é" d="M283 418q0 -242 205 -242q44 0 78 8.5t59.5 20.5t46 27t38 27t34.5 20.5t37 8.5q12 0 23.5 -6t20.5 -16l63 -76q-53 -53 -104 -92t-104 -64t-112 -37t-128 -12q-90 0 -163 30.5t-125 86t-80.5 134t-28.5 175.5q0 81 17.5 159t50.5 148t81 129t108.5 102t133 67t155.5 24 q80 0 140.5 -23t101 -59.5t60.5 -81.5t20 -88q0 -69 -27.5 -126t-98 -102t-192.5 -77.5t-310 -51.5v-13zM575 868q-50 0 -93 -20.5t-77.5 -57.5t-60 -88.5t-40.5 -112.5q124 17 199.5 37.5t116.5 44t54.5 51t13.5 57.5q0 15 -6.5 31t-20 28.5t-35 21t-51.5 8.5zM949 1462 l-257 -261q-19 -20 -36 -27.5t-43 -7.5h-136l158 243q17 26 37 39.5t57 13.5h220z"/>
<glyph glyph-name="ecircumflex" horiz-adv-x="974" unicode="ê" d="M283 418q0 -242 205 -242q44 0 78 8.5t59.5 20.5t46 27t38 27t34.5 20.5t37 8.5q12 0 23.5 -6t20.5 -16l63 -76q-53 -53 -104 -92t-104 -64t-112 -37t-128 -12q-90 0 -163 30.5t-125 86t-80.5 134t-28.5 175.5q0 81 17.5 159t50.5 148t81 129t108.5 102t133 67t155.5 24 q80 0 140.5 -23t101 -59.5t60.5 -81.5t20 -88q0 -69 -27.5 -126t-98 -102t-192.5 -77.5t-310 -51.5v-13zM575 868q-50 0 -93 -20.5t-77.5 -57.5t-60 -88.5t-40.5 -112.5q124 17 199.5 37.5t116.5 44t54.5 51t13.5 57.5q0 15 -6.5 31t-20 28.5t-35 21t-51.5 8.5zM905 1168 h-152q-13 0 -25.5 5.5t-24.5 19.5l-78 104q-5 5 -8.5 11t-8.5 13q-5 -7 -11 -13l-11 -11l-103 -104q-13 -13 -27 -19t-28 -6h-158l242 278h214z"/>
<glyph glyph-name="edieresis" horiz-adv-x="974" unicode="ë" d="M283 418q0 -242 205 -242q44 0 78 8.5t59.5 20.5t46 27t38 27t34.5 20.5t37 8.5q12 0 23.5 -6t20.5 -16l63 -76q-53 -53 -104 -92t-104 -64t-112 -37t-128 -12q-90 0 -163 30.5t-125 86t-80.5 134t-28.5 175.5q0 81 17.5 159t50.5 148t81 129t108.5 102t133 67t155.5 24 q80 0 140.5 -23t101 -59.5t60.5 -81.5t20 -88q0 -69 -27.5 -126t-98 -102t-192.5 -77.5t-310 -51.5v-13zM575 868q-50 0 -93 -20.5t-77.5 -57.5t-60 -88.5t-40.5 -112.5q124 17 199.5 37.5t116.5 44t54.5 51t13.5 57.5q0 15 -6.5 31t-20 28.5t-35 21t-51.5 8.5zM941 1292 q0 -28 -11 -52.5t-29.5 -42.5t-44 -28.5t-53.5 -10.5q-29 0 -53.5 10.5t-43.5 28.5t-29.5 42.5t-10.5 52.5q0 29 10.5 54.5t29.5 44.5t43.5 30t53.5 11q28 0 53.5 -11t44 -30t29.5 -44.5t11 -54.5zM557 1292q0 -28 -11 -52.5t-30.5 -42.5t-45 -28.5t-53.5 -10.5 q-27 0 -51.5 10.5t-43.5 28.5t-30 42.5t-11 52.5q0 29 11 54.5t30 44.5t43.5 30t51.5 11q28 0 53.5 -11t45 -30t30.5 -44.5t11 -54.5z"/>
<glyph glyph-name="igrave" horiz-adv-x="490" unicode="ì" d="M416 1026l-123 -1026h-243l123 1026h243zM254 1462q36 0 53 -13.5t28 -39.5l103 -243h-129q-26 0 -41.5 7.5t-29.5 27.5l-198 261h214z"/>
<glyph glyph-name="iacute" horiz-adv-x="490" unicode="í" d="M416 1026l-123 -1026h-243l123 1026h243zM650 1462l-257 -261q-19 -20 -36 -27.5t-43 -7.5h-136l158 243q17 26 37 39.5t57 13.5h220z"/>
<glyph glyph-name="icircumflex" horiz-adv-x="490" unicode="î" d="M416 1026l-123 -1026h-243l123 1026h243zM631 1168h-152q-13 0 -25.5 5.5t-24.5 19.5l-78 104q-5 5 -8.5 11t-8.5 13q-5 -7 -11 -13l-11 -11l-103 -104q-13 -13 -27 -19t-28 -6h-158l242 278h214z"/>
<glyph glyph-name="idieresis" horiz-adv-x="490" unicode="ï" d="M416 1026l-123 -1026h-243l123 1026h243zM630 1292q0 -28 -11 -52.5t-30 -42.5t-44.5 -28.5t-53.5 -10.5t-53 10.5t-43.5 28.5t-29.5 42.5t-11 52.5q0 29 11 54.5t29.5 44.5t43.5 30t53 11t53.5 -11t44.5 -30t30 -44.5t11 -54.5zM310 1292q0 -28 -11 -52.5t-30.5 -42.5 t-45 -28.5t-54.5 -10.5q-27 0 -51.5 10.5t-43 28.5t-29.5 42.5t-11 52.5q0 29 11 54.5t29.5 44.5t43 30t51.5 11q29 0 54.5 -11t45 -30t30.5 -44.5t11 -54.5z"/>
<glyph glyph-name="eth" horiz-adv-x="1065" unicode="ð" d="M838 1198q74 -85 116 -202t42 -270q0 -170 -37.5 -307t-109 -233.5t-176 -148.5t-237.5 -52q-87 0 -160 29t-125.5 83.5t-82 132.5t-29.5 175q0 107 36.5 202.5t101 167.5t152.5 114t192 42q94 0 165.5 -38t119.5 -113q-5 109 -37 191t-98 143l-207 -133l-45 79 q-11 18 -5.5 35t19.5 26l117 76q-68 34 -152 59q-40 13 -47 37.5t10 59.5l36 76q94 -17 179.5 -50t157.5 -85l183 114l40 -78q8 -17 6.5 -35.5t-24.5 -31.5zM465 167q51 0 97.5 21t85 68t67.5 123t45 187q-10 37 -27 70.5t-42.5 59t-61 40t-82.5 14.5q-63 0 -113.5 -26 t-85.5 -71t-53.5 -106t-18.5 -131q0 -59 14 -105.5t39 -78.5t60 -48.5t76 -16.5z"/>
<glyph glyph-name="ntilde" horiz-adv-x="1082" unicode="ñ" d="M365 814q78 115 173 171.5t196 56.5q64 0 115 -26t84 -76t47 -122q7 -38 7 -82q0 -39 -6 -83l-77 -653h-247l77 653q5 36 5 65q0 50 -15 78q-23 44 -84 44q-41 0 -84 -23.5t-83 -67t-73.5 -104t-54.5 -135.5l-57 -510h-247l123 1027h125q39 0 60.5 -19t21.5 -61z M722 1359q27 0 44.5 16.5t22.5 59.5h139q-7 -56 -26.5 -101.5t-48 -78t-65 -50t-77.5 -17.5q-33 0 -60.5 13t-50.5 28t-43.5 28t-38.5 13q-27 0 -44 -17.5t-22 -59.5h-140q6 56 26 101.5t49 78t65.5 50.5t77.5 18q33 0 60.5 -13t51 -28t43 -28t37.5 -13z"/>
<glyph glyph-name="ograve" horiz-adv-x="1047" unicode="ò" d="M439 -15q-85 0 -157 28.5t-125 83.5t-83 135t-30 183q0 133 43 248t116.5 199t171.5 132t209 48q85 0 157.5 -28.5t125 -83.5t82.5 -135t30 -183q0 -132 -43 -246.5t-116.5 -199t-171.5 -133t-209 -48.5zM462 175q62 0 112 35.5t85 95t54 138.5t19 166q0 125 -42 183.5 t-128 58.5q-62 0 -112.5 -35t-85.5 -94.5t-54 -138.5t-19 -167q0 -125 42 -183.5t129 -58.5zM548 1462q36 0 53 -13.5t28 -39.5l103 -243h-129q-26 0 -41.5 7.5t-29.5 27.5l-198 261h214z"/>
<glyph glyph-name="oacute" horiz-adv-x="1047" unicode="ó" d="M439 -15q-85 0 -157 28.5t-125 83.5t-83 135t-30 183q0 133 43 248t116.5 199t171.5 132t209 48q85 0 157.5 -28.5t125 -83.5t82.5 -135t30 -183q0 -132 -43 -246.5t-116.5 -199t-171.5 -133t-209 -48.5zM462 175q62 0 112 35.5t85 95t54 138.5t19 166q0 125 -42 183.5 t-128 58.5q-62 0 -112.5 -35t-85.5 -94.5t-54 -138.5t-19 -167q0 -125 42 -183.5t129 -58.5zM947 1462l-257 -261q-19 -20 -36 -27.5t-43 -7.5h-136l158 243q17 26 37 39.5t57 13.5h220z"/>
<glyph glyph-name="ocircumflex" horiz-adv-x="1047" unicode="ô" d="M439 -15q-85 0 -157 28.5t-125 83.5t-83 135t-30 183q0 133 43 248t116.5 199t171.5 132t209 48q85 0 157.5 -28.5t125 -83.5t82.5 -135t30 -183q0 -132 -43 -246.5t-116.5 -199t-171.5 -133t-209 -48.5zM462 175q62 0 112 35.5t85 95t54 138.5t19 166q0 125 -42 183.5 t-128 58.5q-62 0 -112.5 -35t-85.5 -94.5t-54 -138.5t-19 -167q0 -125 42 -183.5t129 -58.5zM923 1168h-152q-13 0 -25.5 5.5t-24.5 19.5l-78 104q-5 5 -8.5 11t-8.5 13q-5 -7 -11 -13l-11 -11l-103 -104q-13 -13 -27 -19t-28 -6h-158l242 278h214z"/>
<glyph glyph-name="otilde" horiz-adv-x="1047" unicode="õ" d="M439 -15q-85 0 -157 28.5t-125 83.5t-83 135t-30 183q0 133 43 248t116.5 199t171.5 132t209 48q85 0 157.5 -28.5t125 -83.5t82.5 -135t30 -183q0 -132 -43 -246.5t-116.5 -199t-171.5 -133t-209 -48.5zM462 175q62 0 112 35.5t85 95t54 138.5t19 166q0 125 -42 183.5 t-128 58.5q-62 0 -112.5 -35t-85.5 -94.5t-54 -138.5t-19 -167q0 -125 42 -183.5t129 -58.5zM729 1359q27 0 44.5 16.5t22.5 59.5h139q-7 -56 -26.5 -101.5t-48 -78t-65 -50t-77.5 -17.5q-33 0 -60.5 13t-50.5 28t-43.5 28t-38.5 13q-27 0 -44 -17.5t-22 -59.5h-140 q6 56 26 101.5t49 78t65.5 50.5t77.5 18q33 0 60.5 -13t51 -28t43 -28t37.5 -13z"/>
<glyph glyph-name="odieresis" horiz-adv-x="1047" unicode="ö" d="M439 -15q-85 0 -157 28.5t-125 83.5t-83 135t-30 183q0 133 43 248t116.5 199t171.5 132t209 48q85 0 157.5 -28.5t125 -83.5t82.5 -135t30 -183q0 -132 -43 -246.5t-116.5 -199t-171.5 -133t-209 -48.5zM462 175q62 0 112 35.5t85 95t54 138.5t19 166q0 125 -42 183.5 t-128 58.5q-62 0 -112.5 -35t-85.5 -94.5t-54 -138.5t-19 -167q0 -125 42 -183.5t129 -58.5zM956 1292q0 -28 -11 -52.5t-29.5 -42.5t-44 -28.5t-53.5 -10.5q-29 0 -53.5 10.5t-43.5 28.5t-29.5 42.5t-10.5 52.5q0 29 10.5 54.5t29.5 44.5t43.5 30t53.5 11q28 0 53.5 -11 t44 -30t29.5 -44.5t11 -54.5zM572 1292q0 -28 -11 -52.5t-30.5 -42.5t-45 -28.5t-53.5 -10.5q-27 0 -51.5 10.5t-43.5 28.5t-30 42.5t-11 52.5q0 29 11 54.5t30 44.5t43.5 30t51.5 11q28 0 53.5 -11t45 -30t30.5 -44.5t11 -54.5z"/>
<glyph glyph-name="divide" d="M392 298q0 34 13.5 64t36 52.5t53 35.5t64.5 13q28 0 52.5 -10.5t42 -28.5t27.5 -42t10 -52q0 -35 -14 -64.5t-37 -51t-53.5 -34t-63.5 -12.5q-29 0 -53 10t-41.5 27.5t-27 41.5t-9.5 51zM480 1010q0 34 13.5 64t36 52.5t53 35.5t64.5 13q28 0 52.5 -10.5t42 -28.5 t27.5 -42t10 -52q0 -35 -14 -64.5t-37 -51t-53.5 -34t-63.5 -12.5q-29 0 -53.5 10t-41.5 27.5t-26.5 41.5t-9.5 51zM111 760h973l-22 -177h-973z" unicode="÷"/>
<glyph glyph-name="oslash" horiz-adv-x="1045" unicode="ø" d="M900 888q38 -53 58 -122t20 -154q0 -132 -43 -246.5t-116.5 -199t-171.5 -133t-208 -48.5q-57 0 -108.5 13t-96.5 38l-10 -13q-29 -40 -69.5 -56t-78.5 -16h-91l137 186q-38 54 -58.5 123t-20.5 155q0 133 43 248t116.5 199t171.5 132t209 48q116 0 206 -52l13 18 q13 18 24 30.5t23 20.5t27.5 11.5t37.5 3.5h122zM656 841q-41 27 -95 27q-62 0 -114.5 -33t-90.5 -92.5t-59.5 -142.5t-21.5 -183q0 -47 8 -90zM366 186q39 -27 95 -27q62 0 114.5 33.5t90.5 93.5t59.5 142.5t21.5 181.5q0 24 -2 46t-6 42z"/>
<glyph glyph-name="ugrave" horiz-adv-x="1082" unicode="ù" d="M1017 1026l-124 -1026h-125q-88 0 -88 85l6 118q-78 -110 -170.5 -164t-191.5 -54q-64 0 -115 26t-84 75.5t-47 122.5q-7 39 -7 83q0 39 6 83l77 651h247l-77 -651q-5 -36 -5 -65q0 -52 15 -80q23 -44 84 -43q40 0 81.5 22t80.5 63t72 98.5t55 128.5l63 527h247z M541 1462q36 0 53 -13.5t28 -39.5l103 -243h-129q-26 0 -41.5 7.5t-29.5 27.5l-198 261h214z"/>
<glyph glyph-name="uacute" horiz-adv-x="1082" unicode="ú" d="M1017 1026l-124 -1026h-125q-88 0 -88 85l6 118q-78 -110 -170.5 -164t-191.5 -54q-64 0 -115 26t-84 75.5t-47 122.5q-7 39 -7 83q0 39 6 83l77 651h247l-77 -651q-5 -36 -5 -65q0 -52 15 -80q23 -44 84 -43q40 0 81.5 22t80.5 63t72 98.5t55 128.5l63 527h247z M983 1462l-257 -261q-19 -20 -36 -27.5t-43 -7.5h-136l158 243q17 26 37 39.5t57 13.5h220z"/>
<glyph glyph-name="ucircumflex" horiz-adv-x="1082" unicode="û" d="M1017 1026l-124 -1026h-125q-88 0 -88 85l6 118q-78 -110 -170.5 -164t-191.5 -54q-64 0 -115 26t-84 75.5t-47 122.5q-7 39 -7 83q0 39 6 83l77 651h247l-77 -651q-5 -36 -5 -65q0 -52 15 -80q23 -44 84 -43q40 0 81.5 22t80.5 63t72 98.5t55 128.5l63 527h247z M932 1168h-152q-13 0 -25.5 5.5t-24.5 19.5l-78 104q-5 5 -8.5 11t-8.5 13q-5 -7 -11 -13l-11 -11l-103 -104q-13 -13 -27 -19t-28 -6h-158l242 278h214z"/>
<glyph glyph-name="udieresis" horiz-adv-x="1082" unicode="ü" d="M1017 1026l-124 -1026h-125q-88 0 -88 85l6 118q-78 -110 -170.5 -164t-191.5 -54q-64 0 -115 26t-84 75.5t-47 122.5q-7 39 -7 83q0 39 6 83l77 651h247l-77 -651q-5 -36 -5 -65q0 -52 15 -80q23 -44 84 -43q40 0 81.5 22t80.5 63t72 98.5t55 128.5l63 527h247z M949 1292q0 -28 -11 -52.5t-29.5 -42.5t-44 -28.5t-53.5 -10.5q-29 0 -53.5 10.5t-43.5 28.5t-29.5 42.5t-10.5 52.5q0 29 10.5 54.5t29.5 44.5t43.5 30t53.5 11q28 0 53.5 -11t44 -30t29.5 -44.5t11 -54.5zM565 1292q0 -28 -11 -52.5t-30.5 -42.5t-45 -28.5t-53.5 -10.5 q-27 0 -51.5 10.5t-43.5 28.5t-30 42.5t-11 52.5q0 29 11 54.5t30 44.5t43.5 30t51.5 11q28 0 53.5 -11t45 -30t30.5 -44.5t11 -54.5z"/>
<glyph glyph-name="yacute" horiz-adv-x="983" unicode="ý" d="M1032 1026l-678 -1310q-14 -26 -33 -38.5t-47 -12.5h-183l228 414l-259 947h207q27 0 40.5 -13.5t18.5 -32.5l126 -532q10 -51 15 -102q11 26 22.5 51.5t23.5 51.5l253 532q10 20 29 32.5t39 12.5h198zM922 1462l-257 -261q-19 -20 -36 -27.5t-43 -7.5h-136l158 243 q17 26 37 39.5t57 13.5h220z"/>
<glyph glyph-name="thorn" horiz-adv-x="1078" unicode="þ" d="M382 825q72 100 160.5 158.5t188.5 58.5q64 0 116 -23.5t89 -70.5t57 -119t20 -169q0 -87 -18 -171t-51 -159t-78.5 -138t-101.5 -109t-119.5 -72t-131.5 -26q-69 0 -125 25t-98 68l-41 -331q-4 -32 -29.5 -57t-67.5 -25h-153l222 1821h243zM310 240q34 -37 78 -52 t86 -15q66 0 120 41t93 107t60 148.5t21 165.5q0 108 -35.5 160.5t-98.5 52.5q-40 0 -82 -27.5t-81 -76t-72.5 -114t-57.5 -141.5z"/>
<glyph glyph-name="dotlessi" horiz-adv-x="490" unicode="ı" d="M416 1026l-123 -1026h-243l123 1026h243z"/>
<glyph glyph-name="kgreenlandic" horiz-adv-x="1000" unicode="ĸ" d="M409 1026l-49 -391h26q21 0 36 6.5t32 26.5l272 315q17 21 36.5 32t47.5 11h219l-333 -381q-18 -22 -37 -39.5t-41 -30.5q17 -14 29.5 -34t23.5 -43l254 -498h-213q-27 0 -45.5 9.5t-28.5 34.5l-200 389q-11 23 -24 30t-41 7h-33l-58 -470h-243l127 1026h243z"/>
<glyph glyph-name="OE" horiz-adv-x="2004" unicode="Œ" d="M1422 1239l-50 -412h455l-24 -199h-456l-51 -421h581l-26 -207h-812l21 173q-88 -90 -201.5 -139t-247.5 -49q-123 0 -221 48t-166 132t-104.5 199.5t-36.5 250.5q0 121 24.5 231t69 204t108.5 170t142.5 130t170.5 83t193 29q136 0 236 -57.5t165 -157.5l25 199h812 l-25 -207h-582zM662 191q100 0 181.5 46t139.5 129.5t89.5 200t31.5 257.5q0 96 -20.5 175.5t-60 136.5t-97.5 88.5t-133 31.5q-101 0 -182.5 -46.5t-140 -130t-90 -200.5t-31.5 -258q0 -96 20.5 -175t60 -136t98 -88t134.5 -31z"/>
<glyph glyph-name="oe" horiz-adv-x="1604" unicode="œ" d="M1524 190q-53 -53 -103.5 -92t-104 -64t-112.5 -37t-128 -12q-95 0 -174.5 48t-124.5 146q-73 -93 -173.5 -143.5t-221.5 -50.5q-83 0 -146.5 30.5t-106.5 81.5t-65 119t-22 143q0 167 45.5 294.5t122 214t176.5 130.5t208 44q99 0 169.5 -42t112.5 -117q64 75 153 117 t203 42q68 0 123.5 -19t94.5 -53t60.5 -81.5t21.5 -104.5q0 -66 -27.5 -122.5t-96.5 -101t-187.5 -77t-300.5 -51.5q4 -132 57.5 -194t147.5 -62q67 0 110 17.5t73.5 38.5t55 38.5t53.5 17.5q13 0 24.5 -6t20.5 -16zM1193 871q-98 0 -168 -74.5t-94 -214.5q120 16 197 38 t121 47t60.5 52.5t16.5 55.5q0 38 -32 67t-101 29zM726 603q1 21 1 40q0 91 -34 153.5t-121 62.5q-68 0 -121.5 -35t-91 -99t-57.5 -154t-20 -199q0 -40 8 -77t27 -65t49.5 -45t74.5 -17q67 0 117.5 31.5t85.5 88.5t55 137t27 178z"/>
<glyph glyph-name="Scaron" horiz-adv-x="1031" unicode="Š" d="M941 1186q-14 -20 -27.5 -29.5t-33.5 -9.5t-41 16t-50 35.5t-69 35.5t-96 16q-54 0 -96 -16t-70.5 -44t-43 -66t-14.5 -82q0 -46 23.5 -76.5t61.5 -53.5t87 -41t99.5 -38t99.5 -46t87 -64t61.5 -91.5t23.5 -129.5q0 -106 -37 -200t-105 -164.5t-166 -112t-219 -41.5 q-63 0 -124 13.5t-115 38.5t-100 60t-80 78l92 124q11 14 28 23t34 9q16 0 31.5 -10t34 -24.5t40 -32t49 -32t63 -24.5t80.5 -10q114 0 178 64t64 177q0 50 -23 82t-61 54t-86.5 38.5t-98.5 35t-98.5 43t-86.5 63t-61 94.5t-23 138q0 93 34.5 179t99 151.5t156 105 t206.5 39.5q59 0 113.5 -12t101.5 -34t86.5 -52.5t68.5 -67.5zM1019 1824l-253 -275h-213l-191 275h165q14 0 33 -4t32 -26l69 -117q3 -5 6 -10.5t5 -10.5q4 5 7.5 10.5t8.5 10.5l94 116q17 22 37.5 26.5t34.5 4.5h165z"/>
<glyph glyph-name="scaron" horiz-adv-x="811" unicode="š" d="M854 1446l-242 -278h-213l-179 278h157q14 0 26 -5t18 -12l84 -111q9 -10 17 -25q6 7 12 13.5t11 11.5l109 111q8 6 21.5 11.5t27.5 5.5h151zM724 833q-11 -16 -21 -22.5t-26 -6.5q-18 0 -36 10t-41.5 22.5t-54 22.5t-72.5 10q-79 0 -121 -35.5t-42 -88.5q0 -41 29.5 -66 t74.5 -44t96.5 -38.5t96.5 -49t74.5 -76t29.5 -119.5q0 -74 -29.5 -141t-84.5 -117.5t-132.5 -80t-174.5 -29.5q-48 0 -94 9.5t-85.5 26.5t-72.5 40t-56 50l61 94q11 17 26 26t37 9q21 0 38 -13t39.5 -28.5t55 -28.5t83.5 -13q41 0 72.5 11t53.5 30t33 44t11 53 q0 34 -17 56.5t-45.5 39t-64.5 29t-73.5 26.5t-73 32t-64 45.5t-45.5 67t-17 96.5q0 68 26 132.5t76 114t123.5 79.5t168.5 30q98 0 174 -33.5t127 -85.5z"/>
<glyph glyph-name="Ydieresis" horiz-adv-x="1215" unicode="Ÿ" d="M731 564l-70 -564h-259l70 562l-377 884h231q34 0 53 -16t28 -43l186 -500q13 -37 22 -71.5t16 -66.5q16 33 34.5 66.5t40.5 71.5l311 500q14 23 37 41t55 18h215zM1065 1665q0 -28 -11 -52.5t-29.5 -43t-44 -29t-54.5 -10.5q-28 0 -53 10.5t-43.5 29t-29.5 43t-11 52.5 t11 53.5t29.5 44.5t43.5 30t53 11q29 0 54.5 -11t44 -30t29.5 -44.5t11 -53.5zM666 1665q0 -28 -11 -52.5t-30.5 -43t-45 -29t-53.5 -10.5q-27 0 -51.5 10.5t-43.5 29t-30 43t-11 52.5t11 53.5t30 44.5t43.5 30t51.5 11q28 0 53.5 -11t45 -30t30.5 -44.5t11 -53.5z"/>
<glyph glyph-name="circumflex" horiz-adv-x="736" unicode="ˆ" d="M817 1168h-152q-13 0 -25.5 5.5t-24.5 19.5l-78 104q-5 5 -8.5 11t-8.5 13q-5 -7 -11 -13l-11 -11l-103 -104q-13 -13 -27 -19t-28 -6h-158l242 278h214z"/>
<glyph glyph-name="ring" horiz-adv-x="736" unicode="˚" d="M436 1325q-1 -8 -1 -16q1 -27 15 -47q18 -26 59 -26q37 0 61.5 25.5t29.5 63.5q1 8 1 16q0 31 -16 51q-20 24 -56 24q-41 0 -64.5 -24.5t-28.5 -66.5zM312 1325q5 46 26 84t52 65t69.5 42t79.5 15q42 0 78 -15t61.5 -42t37.5 -65q9 -27 9 -58q0 -12 -1 -26 q-5 -45 -26 -82t-52.5 -63.5t-71 -41t-81.5 -14.5q-41 0 -76 14.5t-60 41t-37 63.5q-9 26 -9 57q0 12 1 25z"/>
<glyph glyph-name="tilde" horiz-adv-x="736" unicode="˜" d="M620 1359q27 0 44.5 16.5t22.5 59.5h139q-7 -56 -26.5 -101.5t-48 -78t-65 -50t-77.5 -17.5q-33 0 -60.5 13t-50.5 28t-43.5 28t-38.5 13q-27 0 -44 -17.5t-22 -59.5h-140q6 56 26 101.5t49 78t65.5 50.5t77.5 18q33 0 60.5 -13t51 -28t43 -28t37.5 -13z"/>
<glyph glyph-name="Alpha" horiz-adv-x="1300" unicode="Α" d="M1229 0h-201q-34 0 -52.5 16.5t-26.5 42.5l-60 302h-539l-134 -302q-11 -23 -35.5 -41t-56.5 -18h-204l699 1446h265zM852 544l-98 495q-6 34 -14 79t-16 98q-20 -53 -39 -98t-34 -80l-219 -494h420z"/>
<glyph glyph-name="Beta" horiz-adv-x="1223" unicode="Β" d="M720 1446q120 0 205.5 -23.5t140 -66.5t80.5 -104t26 -136q0 -62 -16.5 -118.5t-51.5 -104.5t-89 -86t-129 -63q123 -31 183 -100.5t60 -176.5q0 -100 -37 -185.5t-107 -148t-170.5 -98t-227.5 -35.5h-510l179 1446h464zM490 1246l-53 -430h191q134 0 207 63t73 193 q0 91 -51.5 132.5t-160.5 41.5h-206zM607 202q69 0 119.5 19t83 53.5t48 83t15.5 106.5q0 79 -50.5 126t-163.5 47h-244l-53 -435h245z"/>
<glyph glyph-name="Gamma" horiz-adv-x="1034" unicode="Γ" d="M1071 1245h-582l-153 -1245h-260l177 1445h843z"/>
<glyph glyph-name="Delta" horiz-adv-x="1324" unicode="Δ" d="M1256 0h-1339l730 1445h235zM280 205h664l-184 834q-8 28 -15 63t-13 77q-17 -42 -32.5 -77.5t-29.5 -63.5z"/>
<glyph glyph-name="Epsilon" horiz-adv-x="1073" unicode="Ε" d="M491 1239l-51 -411h457l-25 -199h-457l-52 -422h584l-26 -207h-844l178 1446h843l-26 -207h-581z"/>
<glyph glyph-name="Zeta" horiz-adv-x="1122" unicode="Ζ" d="M1163 1365q-3 -17 -10.5 -32t-18.5 -30l-799 -1096h670l-26 -207h-1016l10 79q2 17 10 32t18 30l801 1098h-642l25 207h989z"/>
<glyph glyph-name="Eta" horiz-adv-x="1435" unicode="Η" d="M1386 1446l-178 -1446h-262l79 635h-609l-78 -635h-261l178 1446h261l-77 -627h608l78 627h261z"/>
<glyph glyph-name="Theta" horiz-adv-x="1506" unicode="Θ" d="M1187 814q0 98 -24.5 178t-71 137t-113.5 88t-151 31q-108 0 -196.5 -44t-151.5 -125t-97.5 -195t-34.5 -253q0 -98 24 -178t70 -136.5t112.5 -87t151.5 -30.5q109 0 198 44t152 124t97.5 193.5t34.5 253.5zM1453 820q0 -120 -26.5 -228.5t-75.5 -201.5t-119 -168 t-156.5 -128t-187.5 -81.5t-212 -28.5q-138 0 -248 49t-187.5 135t-118.5 203t-41 254q0 120 26.5 228.5t76 201.5t119 168t156 128.5t187.5 82t213 28.5q138 0 248 -49t187 -135t118 -203.5t41 -254.5zM536 830h487l-26 -207h-487z"/>
<glyph glyph-name="Iota" horiz-adv-x="564" unicode="Ι" d="M338 0h-261l176 1446h261z"/>
<glyph glyph-name="Kappa" horiz-adv-x="1279" unicode="Κ" d="M849 841q-22 -28 -44 -46.5t-46 -29.5q30 -11 52 -32t39 -56l368 -677h-229q-23 0 -39 3.5t-27.5 10t-19 16t-13.5 21.5l-298 539q-13 27 -35.5 38t-65.5 11h-77l-79 -639h-258l176 1447h260l-75 -612h55q35 0 59.5 10.5t44.5 34.5l418 510q25 33 54.5 44.5t68.5 11.5 h223z"/>
<glyph glyph-name="Lambda" horiz-adv-x="1298" unicode="Λ" d="M1228 0h-210q-34 0 -53 16.5t-27 42.5l-193 901q-11 42 -20 90.5t-15 102.5q-18 -54 -38 -102.5t-41 -90.5l-411 -901q-11 -23 -36 -41t-57 -18h-208l714 1445h235z"/>
<glyph glyph-name="Mu" horiz-adv-x="1758" unicode="Μ" d="M1709 1446l-178 -1446h-228l116 942q4 26 9.5 56t12.5 62l-497 -824q-17 -28 -42.5 -42t-55.5 -14h-36q-30 0 -52.5 14t-32.5 42l-298 824q-1 -31 -2.5 -60t-4.5 -54l-114 -946h-229l178 1446h195q17 0 28.5 -1.5t20.5 -6t17 -13t17 -21.5l299 -826q18 -53 30 -108 q13 28 26.5 55t29.5 53l502 826q12 13 21.5 21.5t19.5 13t22 6t29 1.5h197z"/>
<glyph glyph-name="Nu" horiz-adv-x="1435" unicode="Ν" d="M1386 1446l-178 -1446h-134q-30 0 -49.5 10.5t-36.5 34.5l-560 988q-2 -25 -4 -47.5t-4 -42.5l-114 -943h-229l178 1446h136q17 0 28.5 -1.5t20.5 -6t16 -12.5t15 -22l563 -987q2 30 4.5 57.5t5.5 50.5l113 921h229z"/>
<glyph glyph-name="Xi" horiz-adv-x="1162" unicode="Ξ" d="M332 837h554l-28 -221h-554zM1040 215l-27 -215h-1013l26 215h1014zM1191 1445l-26 -214h-1014l26 214h1014z"/>
<glyph glyph-name="Omicron" horiz-adv-x="1506" unicode="Ο" d="M1187 814q0 98 -24.5 178t-71 137t-113.5 88t-151 31q-108 0 -196.5 -44t-151.5 -125t-97.5 -195t-34.5 -253q0 -98 24 -178t70 -136.5t112.5 -87t151.5 -30.5q109 0 198 44t152 124t97.5 193.5t34.5 253.5zM1453 820q0 -120 -26.5 -228.5t-75.5 -201.5t-119 -168 t-156.5 -128t-187.5 -81.5t-212 -28.5q-138 0 -248 49t-187.5 135t-118.5 203t-41 254q0 120 26.5 228.5t76 201.5t119 168t156 128.5t187.5 82t213 28.5q138 0 248 -49t187 -135t118 -203.5t41 -254.5z"/>
<glyph glyph-name="Pi" horiz-adv-x="1433" unicode="Π" d="M1206 0h-260l153 1245h-610l-153 -1245h-260l177 1445h1131z"/>
<glyph glyph-name="Rho" horiz-adv-x="1162" unicode="Ρ" d="M693 1446q123 0 211.5 -29.5t145.5 -82.5t84.5 -125.5t27.5 -159.5q0 -116 -36.5 -214.5t-109.5 -170t-182.5 -112t-255.5 -40.5h-180l-63 -512h-258l176 1446h440zM604 714q77 0 133 23t92.5 64.5t54 98.5t17.5 126q0 49 -14 90t-43 69.5t-72.5 44.5t-103.5 16h-180 l-65 -532h181z"/>
<glyph glyph-name="Sigma" horiz-adv-x="1135" unicode="Σ" d="M588 1245q-54 0 -95.5 4t-83.5 12q46 -26 80.5 -57t56.5 -69l155 -268q15 -26 25.5 -44t16.5 -31.5t8 -24.5t1 -22q-2 -13 -6.5 -26t-14.5 -28t-25.5 -34.5t-37.5 -46.5l-275 -330q-27 -32 -52 -53.5t-54 -37.5q42 5 77 7.5t65 2.5h587l-24 -199h-1014l12 96 q4 29 21 57.5t39 48.5l479 518l-366 541q-11 15 -17 34t-4 39l13 111h1014l-25 -200h-556z"/>
<glyph glyph-name="Tau" horiz-adv-x="1114" unicode="Τ" d="M1158 1233h-395l-152 -1233h-258l150 1233h-397l26 213h1053z"/>
<glyph glyph-name="Upsilon" horiz-adv-x="1215" unicode="Υ" d="M731 564l-70 -564h-259l70 562l-377 884h231q34 0 53 -16t28 -43l186 -500q13 -37 22 -71.5t16 -66.5q16 33 34.5 66.5t40.5 71.5l311 500q14 23 37 41t55 18h215z"/>
<glyph glyph-name="Phi" horiz-adv-x="1580" unicode="Φ" d="M1006 1371q127 -2 227.5 -48t170 -124t106.5 -181.5t37 -220.5q0 -148 -51.5 -278t-144 -227t-221 -154t-282.5 -58l-24 -192h-246l24 192q-128 1 -228.5 47.5t-170 125t-106 182t-36.5 219.5q0 147 52 277t144.5 227t221 154t281.5 59l23 188h246zM735 1171 q-91 -2 -168 -42.5t-133.5 -109t-88 -159.5t-31.5 -194q0 -78 21 -148t61 -122.5t98 -83.5t132 -33zM872 279q91 2 168.5 42.5t134 109t88 159.5t31.5 195q0 78 -21 147.5t-61 122t-98.5 83.5t-132.5 33z"/>
<glyph glyph-name="Chi" horiz-adv-x="1261" unicode="Χ" d="M832 784l363 -784h-233q-26 0 -40.5 14t-22.5 31l-250 579q-9 -17 -19 -32l-374 -547q-17 -25 -37.5 -35t-43.5 -10h-259l558 773l-326 673h235q26 0 38 -7.5t20 -25.5l221 -498q5 10 11 20t13 21l308 454q24 36 59 36h271z"/>
<glyph glyph-name="Psi" horiz-adv-x="1546" unicode="Ψ" d="M1566 1445l-64 -518q-16 -127 -64.5 -230t-128.5 -178t-190.5 -119t-250.5 -52l-43 -348h-261l43 348q-137 8 -236.5 52t-161 119t-80 157.5t-18.5 150.5q0 48 7 100l64 518h174q41 0 59 -23.5t18 -51.5q0 -6 -1 -12l-53 -431q-7 -52 -7 -97q0 -29 5 -74.5t34.5 -92 t83.5 -73t138 -33.5l109 888h260l-109 -889q86 7 147.5 33.5t102.5 73t64 112.5t34 152l53 431q5 36 30 61.5t67 25.5h175z"/>
<glyph glyph-name="alpha" horiz-adv-x="1127" unicode="α" d="M1112 1027q-50 -181 -117 -337t-146 -283v-19q0 -32 3 -64t14.5 -58.5t33 -41t56.5 -14.5h77l-24 -137q-3 -14 -10.5 -29t-23 -27t-40.5 -19.5t-64 -7.5q-42 0 -71.5 12.5t-49 39.5t-31 68.5t-15.5 99.5q-96 -108 -196.5 -166.5t-199.5 -58.5q-59 0 -108.5 22.5t-85 69 t-55 117t-19.5 166.5q0 92 18.5 178.5t52 162.5t80.5 138.5t104 107.5t122 70t135 25q57 0 100.5 -16t76.5 -45t55 -68.5t36 -86.5q18 65 32 104.5t28 61t28.5 28.5t33.5 7h170zM417 179q79 0 151 77.5t135 217.5q9 74 11 116t2 58q0 50 -10 96t-39.5 77.5t-85.5 31.5 q-59 0 -113 -35.5t-94.5 -97t-64.5 -144t-24 -177.5q0 -220 132 -220z"/>
<glyph glyph-name="beta" horiz-adv-x="1061" unicode="β" d="M152 923q15 125 50 224.5t92 169t138.5 106.5t190.5 37q86 0 152.5 -25t112 -67.5t69 -100t23.5 -122.5q0 -125 -58 -215.5t-171 -132.5q112 -32 170.5 -113.5t58.5 -197.5q0 -105 -33.5 -196t-93.5 -158.5t-143.5 -106.5t-183.5 -39q-66 0 -129 23.5t-109 74.5l-16 -130 l-51 -189q-16 -48 -44.5 -75t-82.5 -27h-96l80 664zM307 239q31 -32 78 -48.5t96 -16.5q65 0 114 24.5t82 67t49.5 99t16.5 120.5q0 60 -17.5 100.5t-46 65t-65.5 35t-76 10.5h-57l23 187h28q104 0 162.5 61t58.5 183q0 79 -39.5 120t-105.5 41q-47 0 -82.5 -20t-61.5 -64.5 t-44 -115.5t-30 -173l-73 -594z"/>
<glyph glyph-name="gamma" horiz-adv-x="1042" unicode="γ" d="M1078 1026q-36 -113 -90.5 -232.5t-121 -237.5t-140.5 -231t-149 -214l-55 -446h-238l54 433q-2 98 -8.5 192.5t-18.5 179t-30 156t-45 123.5t-62.5 81t-81.5 29h-28l10 87q3 19 9 35.5t19.5 28t36 18t58.5 6.5q93 0 156.5 -51t103 -144t55.5 -220.5t16 -276.5v-18 q43 72 81.5 151t71.5 160t60 161.5t48 154.5q12 42 33.5 58.5t53.5 16.5h202z"/>
<glyph glyph-name="delta" horiz-adv-x="1043" unicode="δ" d="M937 1270q-8 -31 -22.5 -41t-43.5 -10q-16 0 -45.5 8.5t-67.5 19t-81 19t-86 8.5q-61 0 -88 -24t-27 -57q0 -28 21 -53.5t55.5 -52t78.5 -56.5t90.5 -65.5t90.5 -79t78.5 -98t55.5 -122t21 -151.5q0 -114 -37 -210.5t-104.5 -167t-163 -110.5t-213.5 -40 q-98 0 -174.5 31.5t-129 87.5t-80 132t-27.5 165q0 387 406 509q-38 28 -73 56.5t-61.5 61.5t-42.5 71.5t-16 86.5q0 61 25.5 111t72.5 85.5t115 55t152 19.5q41 0 88 -3.5t95 -10t93 -14.5t82 -17zM468 166q54 0 101.5 23.5t82.5 68t55 107.5t20 142q0 58 -14.5 106 t-38.5 87.5t-56.5 72t-68.5 61.5q-52 -23 -100 -57t-84.5 -84.5t-58.5 -119t-22 -158.5q0 -51 11 -96t33.5 -79t57 -54t82.5 -20z"/>
<glyph glyph-name="epsilon" horiz-adv-x="852" unicode="ε" d="M768 828q-16 -22 -29 -28t-30 -6q-15 0 -30.5 11t-38 23.5t-54 23.5t-79.5 11q-85 0 -130 -38t-45 -96q0 -51 41.5 -85t122.5 -34h152l-19 -155h-153q-109 0 -156.5 -42t-47.5 -115q0 -57 37 -94.5t109 -37.5q54 0 90.5 14.5t63.5 32.5t48 32.5t43 14.5q28 0 41 -21 l58 -88q-45 -47 -94.5 -78.5t-99.5 -50.5t-97.5 -27t-88.5 -8q-72 0 -136.5 19.5t-113 56.5t-77 89t-28.5 118q0 92 58.5 163t174.5 103q-45 16 -75.5 39.5t-49 51.5t-26.5 58.5t-8 60.5q0 57 28 110t80.5 94t128.5 66t172 25q109 0 191 -35t130 -91z"/>
<glyph glyph-name="zeta" horiz-adv-x="745" unicode="ζ" d="M860 1367q1 -6 1 -12q0 -13 -4 -28.5t-18 -37t-40.5 -49t-69.5 -66.5q-42 -39 -92.5 -86.5t-101 -102t-97.5 -115.5t-83.5 -127.5t-58.5 -138.5t-22 -147q0 -47 12 -81.5t36.5 -61.5t61 -47.5t84.5 -37.5q69 -26 114.5 -54.5t72.5 -60t38.5 -65.5t11.5 -70 q0 -75 -30.5 -149t-90.5 -155l-175 71q10 16 22 36t22.5 41t17 43t6.5 42q0 15 -6.5 31.5t-24 33t-48 33.5t-78.5 34q-69 24 -121.5 56t-88.5 74.5t-54 96.5t-18 123q0 123 44 234.5t121 219.5t181.5 215.5t226.5 220.5q-53 -11 -114.5 -19t-139.5 -8h-71q-27 0 -45 7 t-28 18.5t-14 25t-2 26.5l15 115h640z"/>
<glyph glyph-name="eta" horiz-adv-x="1100" unicode="η" d="M58 954q4 33 34 57t96 24q44 0 81.5 -12t65.5 -36.5t44.5 -62t19.5 -89.5q76 105 166.5 156t186.5 51q64 0 115.5 -26t84.5 -75.5t43.5 -105t10.5 -99.5q0 -39 -6 -83l-121 -989h-239l122 989q4 34 4 62q0 53 -20.5 89t-85.5 36q-33 0 -68 -16t-69 -45t-65 -71t-56 -94 l-75 -614h-237l89 727q2 18 2 34q0 43 -19 71.5t-69 28.5h-46z"/>
<glyph glyph-name="theta" horiz-adv-x="1130" unicode="θ" d="M661 1462q91 0 165 -38.5t126 -112.5t80.5 -181.5t28.5 -244.5q0 -217 -41.5 -384.5t-116.5 -282t-178.5 -174t-227.5 -59.5q-93 0 -168.5 39t-128 113t-81 182t-28.5 246q0 216 42 383.5t117.5 281.5t180 173t230.5 59zM830 818q1 23 1.5 46t0.5 47q0 186 -48 277 t-138 91q-127 0 -204.5 -120t-105.5 -341h494zM323 656q-3 -57 -3 -118q0 -186 49.5 -277t143.5 -91q125 0 202.5 125t103.5 361h-496z"/>
<glyph glyph-name="iota" horiz-adv-x="525" unicode="ι" d="M158 1025h239l-90 -725q-2 -19 -2 -36q0 -41 17 -70.5t73 -29.5h87l-9 -73q-3 -25 -21.5 -44t-46 -32t-61 -19.5t-66.5 -6.5q-61 0 -104 22t-69.5 62t-33.5 81.5t-7 73.5q0 28 4 59z"/>
<glyph glyph-name="kappa" horiz-adv-x="1001" unicode="κ" d="M409 1026l-49 -391h26q21 0 36 6.5t32 26.5l272 315q17 21 36.5 32t47.5 11h219l-333 -381q-18 -22 -37 -39.5t-41 -30.5q17 -14 29.5 -34t23.5 -43l254 -498h-213q-27 0 -45.5 9.5t-28.5 34.5l-200 389q-11 23 -24 30t-41 7h-33l-58 -470h-243l127 1026h243z"/>
<glyph glyph-name="lambda" horiz-adv-x="1021" unicode="λ" d="M965 163l-12 -94q-6 -50 -36.5 -65.5t-79.5 -15.5q-53 0 -94.5 10t-73.5 39.5t-55 83.5t-38 142l-49 233q-10 62 -13.5 106t-4.5 79q-13 -36 -29 -76.5t-36 -86.5l-218 -473q-8 -19 -26.5 -32t-51.5 -13h-200l479 925l-49 256q-6 29 -14.5 49t-23 32t-36.5 17t-55 5h-63 l11 87q2 18 10 34t25 28t44 19t66 7q38 0 77 -8.5t72.5 -29.5t59.5 -58t38 -94l209 -1005q10 -52 34 -76.5t78 -24.5h55z"/>
<glyph glyph-name="mu" horiz-adv-x="1127" unicode="μ" d="M1072 171l-12 -98q-2 -16 -14.5 -31t-33.5 -26.5t-50 -18.5t-64 -7q-39 0 -74 11.5t-62 35.5t-45.5 60.5t-25.5 86.5q-59 -81 -125.5 -125t-144.5 -44q-100 0 -156 53q2 -25 2 -50q0 -17 -1.5 -46.5t-6.5 -66.5l-29 -240h-123q-52 0 -74.5 24t-22.5 61q0 9 1 18l154 1258 h247l-74 -606q-3 -25 -3 -47q0 -61 26 -109.5t100 -48.5q70 0 123 41.5t91 116.5l81 653h247l-89 -723q-2 -17 -2 -32q0 -44 20.5 -72t68.5 -28h71z"/>
<glyph glyph-name="nu" horiz-adv-x="971" unicode="ν" d="M1006 1025q-41 -132 -101 -269t-132 -269.5t-153.5 -256.5t-165.5 -230h-147l-249 1025h196q26 0 42.5 -12.5t20.5 -32.5l104 -562q8 -40 13.5 -79t9.5 -78q48 75 89 160.5t75.5 175.5t63.5 181.5t53 177.5q11 38 32 53.5t45 15.5h204z"/>
<glyph glyph-name="xi" horiz-adv-x="747" unicode="ξ" d="M837 1346q-2 -21 -12 -37.5t-24.5 -28t-32 -17.5t-35.5 -6h-86q-60 0 -108.5 -19.5t-82 -54t-52 -81t-18.5 -100.5q0 -74 53.5 -112.5t152.5 -38.5h94l-22 -185h-145q-64 0 -109.5 -18.5t-75 -50.5t-43 -76t-13.5 -96q0 -39 13.5 -69.5t42 -56t73 -49.5t106.5 -50 q91 -38 130 -91.5t39 -122.5q0 -78 -30.5 -153t-91.5 -159l-176 72q11 16 23 35.5t22 41t16.5 43t6.5 42.5q0 35 -20.5 62.5t-75.5 45.5q-72 24 -131 58t-101 79.5t-64.5 102.5t-22.5 128q0 51 14 106.5t46 108t85 97t130 72.5q-78 29 -113 81.5t-35 124.5q0 55 19 100 t51 81t74 64t89 48h-141q-54 0 -71 22t-17 52q0 8 1 17l11 87h670z"/>
<glyph glyph-name="omicron" horiz-adv-x="1047" unicode="ο" d="M439 -15q-85 0 -157 28.5t-125 83.5t-83 135t-30 183q0 133 43 248t116.5 199t171.5 132t209 48q85 0 157.5 -28.5t125 -83.5t82.5 -135t30 -183q0 -132 -43 -246.5t-116.5 -199t-171.5 -133t-209 -48.5zM462 175q62 0 112 35.5t85 95t54 138.5t19 166q0 125 -42 183.5 t-128 58.5q-62 0 -112.5 -35t-85.5 -94.5t-54 -138.5t-19 -167q0 -125 42 -183.5t129 -58.5z"/>
<glyph glyph-name="pi" horiz-adv-x="1177" unicode="π" d="M1162 906q-4 -32 -26.5 -54t-59.5 -22h-122q-7 -33 -13 -72t-10.5 -90.5t-7 -117.5t-2.5 -152q0 -73 5.5 -117.5t15.5 -68.5t25 -32t33 -8h44l-12 -98q-3 -20 -17 -35t-35.5 -25.5t-49.5 -16t-58 -5.5q-108 0 -159 70t-51 195q0 60 9.5 117t24.5 122.5t34 146t37 187.5 h-273q-25 -172 -51.5 -301.5t-55 -222.5t-60.5 -154t-68 -97t-76.5 -50t-85.5 -14q-15 0 -32 2.5t-31 8.5t-23 15t-7 21l20 165h20q30 0 61 33.5t61 108t58.5 194t54.5 291.5h-188l13 104q2 14 10 29.5t21.5 28.5t31.5 21.5t40 8.5h969z"/>
<glyph glyph-name="rho" horiz-adv-x="1061" unicode="ρ" d="M92 540q30 244 159.5 373t343.5 129q85 0 157 -31t125 -88.5t83 -140t30 -185.5q0 -127 -37.5 -238.5t-103 -194.5t-153.5 -131t-189 -48q-69 0 -128 29t-104 79l-53 -429h-238zM298 280q34 -60 83 -87t97 -27q54 0 102.5 28t85 83.5t58 138t21.5 190.5 q0 131 -47.5 190.5t-125.5 59.5q-42 0 -81.5 -18t-71.5 -56t-55 -96t-33 -137z"/>
<glyph glyph-name="sigma1" horiz-adv-x="880" unicode="ς" d="M820 813q-12 -14 -23 -21.5t-30 -7.5q-18 0 -33.5 12t-36.5 26t-50.5 26t-74.5 12q-63 0 -113.5 -28t-86.5 -77t-55 -115.5t-19 -143.5q0 -68 17 -112t50 -74.5t81 -53t110 -47.5q53 -21 89.5 -44.5t58.5 -50.5t31.5 -58.5t9.5 -69.5q0 -77 -30.5 -152t-91.5 -159 l-176 71q11 16 23 36t22 42t16.5 45t6.5 45q0 16 -4 30t-16 27t-33 25.5t-54 24.5q-69 26 -134 59t-114.5 84t-79.5 125t-30 183q0 119 35.5 223t103 181t165.5 121t222 44q107 0 184 -36.5t134 -105.5z"/>
<glyph glyph-name="sigma" horiz-adv-x="1147" unicode="σ" d="M1203 1024l-13 -104q-5 -33 -28 -55.5t-72 -22.5h-211q52 -48 83.5 -117t31.5 -157q0 -125 -39.5 -232t-111 -185t-169.5 -122t-215 -44q-95 0 -172 30.5t-131 87.5t-83 137.5t-29 181.5q0 135 45.5 246t127 190t195.5 122.5t252 43.5h539zM635 842q-92 0 -157.5 -28 t-107.5 -82t-61.5 -133t-19.5 -182q0 -121 47.5 -185t143.5 -64q138 0 206.5 116.5t68.5 331.5q0 37 -4.5 72t-14.5 65t-25 53.5t-36 35.5h-40z"/>
<glyph glyph-name="tau" horiz-adv-x="885" unicode="τ" d="M901 926q-5 -41 -29 -62.5t-63 -21.5h-256l-66 -539q-2 -19 -2 -36q0 -42 17 -71.5t73 -29.5h87l-9 -73q-3 -25 -21.5 -44t-46 -32t-61 -19.5t-66.5 -6.5q-61 0 -104 22.5t-69.5 62t-33.5 81t-7 73.5q0 28 4 59l67 553h-274l13 102q4 30 26.5 53t62.5 23h769z"/>
<glyph glyph-name="upsilon" horiz-adv-x="1039" unicode="υ" d="M957 1025q1 -26 1.5 -59t1 -66.5t1 -63.5t0.5 -50q0 -226 -47.5 -379.5t-124.5 -247.5t-173.5 -134.5t-194.5 -40.5q-94 0 -164 27t-114 77.5t-58 108.5t-14 109q0 32 4 67l80 652h239l-80 -652q-3 -22 -3 -42q0 -67 36.5 -114t112.5 -47q44 0 90.5 23t84.5 80t62.5 153 t24.5 242q0 30 -1 65t-2 72t-1.5 73t-0.5 69q1 21 8.5 36t18.5 24.5t23.5 13.5t24.5 4h165z"/>
<glyph glyph-name="phi" horiz-adv-x="1445" unicode="φ" d="M616 696q22 178 121 261.5t254 83.5q89 0 160.5 -32.5t122 -90.5t77.5 -136.5t27 -169.5q0 -141 -48 -256t-132 -197t-198.5 -127.5t-247.5 -46.5l-39 -320h-224l39 320q-110 2 -199 37t-152 96t-97 145.5t-34 185.5q0 105 30.5 195.5t85 165t130 131.5t165.5 94l55 -96 q7 -13 7 -27.5t-5.5 -27.5t-15.5 -24t-21 -17q-90 -54 -141.5 -152.5t-51.5 -231.5q0 -65 17.5 -119t51.5 -93t83.5 -61.5t113.5 -24.5zM774 161q85 1 153 35.5t115 94.5t72 141t25 176q0 59 -10.5 107t-31.5 81.5t-51 51.5t-69 18q-52 0 -89.5 -40t-47.5 -130z"/>
<glyph glyph-name="chi" horiz-adv-x="914" unicode="χ" d="M680 -79q6 -25 14.5 -44t21.5 -31.5t31.5 -18.5t45.5 -6h36l-12 -94q-3 -25 -9 -41t-17 -25t-29 -12t-44 -3q-45 0 -84.5 8t-72 31t-58 63t-42.5 105l-89 329q-8 -28 -16.5 -54t-18.5 -47l-195 -370q-8 -18 -25.5 -31.5t-46.5 -13.5h-171l396 716l-101 379 q-9 30 -19.5 49.5t-25 31.5t-35 17t-50.5 5h-35l11 86q3 18 5.5 34t11.5 28t29 19t57 7q52 0 93.5 -9.5t74 -32t56 -58.5t38.5 -88l89 -331q8 29 16.5 55.5t18.5 47.5l187 359q9 18 26 31.5t46 13.5h171l-388 -701z"/>
<glyph glyph-name="psi" horiz-adv-x="1469" unicode="ψ" d="M1386 1026q1 -26 2 -59t2 -67t1.5 -64t0.5 -50q0 -149 -22.5 -263.5t-63 -200.5t-96.5 -145.5t-124 -98t-145.5 -59t-160.5 -28.5l-40 -326h-238l40 324q-135 11 -228.5 50.5t-148.5 104.5t-70 135t-15 128q0 43 6 90l65 529h165q15 0 27 -8t20.5 -20.5t12 -29t1.5 -33.5 l-53 -438q-4 -29 -4 -56q0 -99 57 -169t188 -92l156 1265h237l-155 -1268q83 9 147.5 38t108 87.5t66 151t22.5 228.5q0 41 -2.5 76t-4.5 67t-3 62t1 60q5 43 28 61t48 18h172z"/>
<glyph glyph-name="theta1" horiz-adv-x="1202" unicode="ϑ" d="M1243 1025l-11 -94q-3 -32 -24.5 -54t-61.5 -22h-68q-5 -191 -43 -350.5t-111.5 -275t-182 -180t-253.5 -64.5q-96 0 -165 31t-112 89t-59 139q-9 46 -8 98q0 40 5 84l22 178q3 22 3 39q0 33 -10 47q-16 22 -62 23h-59l11 89q5 38 46.5 62t114.5 24q48 0 88 -15.5 t66.5 -50t37.5 -88.5q6 -30 6 -66q0 -30 -4 -64l-21 -178q-4 -34 -4 -63q0 -73 25 -123q35 -68 119 -69q69 0 127 40.5t101.5 124.5t69.5 213t31 306q-122 2 -217 23t-160 59.5t-99.5 94t-34.5 126.5q0 67 23.5 122.5t67 95t106.5 61.5t143 22q77 0 142.5 -28t116 -82.5 t83.5 -136t45 -187.5h170zM564 1167q0 -30 15.5 -55t50 -43t89.5 -29t134 -14q-6 57 -19.5 105t-35.5 83t-51.5 54.5t-67.5 19.5q-56 0 -85.5 -32t-29.5 -89z"/>
<glyph glyph-name="Upsilon1" horiz-adv-x="1225" unicode="ϒ" d="M124 1407q4 24 36.5 36.5t101.5 12.5q72 0 137 -25.5t116.5 -90t86 -174t45.5 -278.5q52 169 113.5 278.5t129 174t139 90t143.5 25.5q69 0 98.5 -12.5t26.5 -36.5l-20 -162h-72q-46 0 -94.5 -17t-96 -56.5t-92.5 -104t-84.5 -160t-71 -224.5t-51.5 -296l-48 -387h-258 l50 410q18 155 18 275q0 6 -0.5 72t-17 159t-45.5 156t-66.5 101.5t-81.5 55t-90 16.5h-71z"/>
<glyph glyph-name="omega1" horiz-adv-x="1675" unicode="ϖ" d="M936 443q-6 -49 -6 -92q0 -9 1 -38.5t13.5 -66t36 -56.5t61.5 -20q37 0 76 19.5t71.5 66.5t53 125.5t20.5 196.5q0 67 -11 135.5t-24 121.5h-743q-19 -35 -36 -76t-30 -89t-20.5 -104t-7.5 -122q0 -79 11 -131.5t29 -84t41.5 -45t48.5 -13.5q38 0 67.5 20t51.5 56.5 t36 86.5t22 110l30 247h238l-31 -247h1zM1709 1020l-14 -111q-4 -31 -25.5 -52.5t-56.5 -21.5h-139q14 -58 22.5 -116t8.5 -109q0 -132 -33.5 -246.5t-93.5 -198.5t-144 -132.5t-184 -48.5q-59 0 -103.5 14t-77 39t-54 59t-33.5 73q-23 -39 -52.5 -73t-68 -59t-85.5 -39 t-104 -14q-77 0 -137.5 33t-101.5 92t-62.5 140t-21.5 177q0 110 30 211t77 198h-210l12 100q2 14 10 29t21 27.5t30.5 20.5t38.5 8h1551z"/>
<glyph glyph-name="uni2002" horiz-adv-x="920" unicode=" "/>
<glyph glyph-name="uni2003" horiz-adv-x="1380" unicode=" "/>
<glyph glyph-name="uni2009" horiz-adv-x="230" unicode=" "/>
<glyph glyph-name="afii61664" horiz-adv-x="0" unicode="‌" d="M-30 1610h60v-2000h-60v2000z"/>
<glyph glyph-name="afii301" horiz-adv-x="0" unicode="‍" d="M76 1698l94 -116l-83 -80l-57 70v-1962h-60v1985l-96 -93l-65 80l120 115l-94 117l83 80l93 -115l120 115l65 -80z"/>
<glyph glyph-name="afii299" horiz-adv-x="0" unicode="‎" d="M514 1696l-193 -193l-77 75l88 88h-302v-2056h-60v2117h360l-86 86l77 76z"/>
<glyph glyph-name="endash" d="M214 683h747l-21 -170h-746z" unicode="–"/>
<glyph glyph-name="emdash" horiz-adv-x="1471" unicode="—" d="M117 683h1252l-21 -170h-1252z"/>
<glyph glyph-name="quoteleft" horiz-adv-x="423" unicode="‘" d="M186 982q-36 76 -40 154v19q0 69 22 133q26 74 79 142t130 127l67 -44q16 -10 16 -28q0 -11 -6 -20.5t-19 -23.5q-17 -20 -39 -53t-36 -77q-13 -41 -12 -90v-7q1 -53 28 -112q8 -20 -3 -37.5t-36 -26.5z"/>
<glyph glyph-name="quotesinglbase" horiz-adv-x="417" unicode="‚" d="M227 285q35 -77 39 -155q0 -9 1 -18q-1 -68 -23 -133q-26 -74 -78.5 -142t-129.5 -127l-67 44q-15 10 -15 28q0 11 5.5 20t18.5 23q18 20 39.5 53.5t35.5 77.5q13 41 13 90v6q-1 52 -28 112q-9 20 2 38t36 27z"/>
<glyph glyph-name="quotedblleft" horiz-adv-x="729" unicode="“" d="M186 982q-36 76 -40 154v19q0 69 22 133q26 74 79 142t130 127l67 -44q16 -10 16 -28q0 -11 -6 -20.5t-19 -23.5q-17 -20 -39 -53t-36 -77q-13 -41 -12 -90v-7q1 -53 28 -112q8 -20 -3 -37.5t-36 -26.5zM491 982q-36 76 -40 154v19q0 69 22 133q26 74 79 142t130 127 l67 -44q16 -10 16 -28q0 -11 -6 -20.5t-19 -23.5q-17 -20 -39 -53t-36 -77q-13 -41 -12 -90v-7q1 -53 28 -112q8 -20 -3 -37.5t-36 -26.5z"/>
<glyph glyph-name="quotedblright" horiz-adv-x="729" unicode="”" d="M399 1526q35 -77 39 -155q0 -9 1 -18q-1 -68 -23 -133q-26 -74 -78.5 -142t-129.5 -127l-67 44q-15 10 -15 28q0 11 5.5 20t18.5 23q18 20 39.5 53.5t35.5 77.5q13 41 13 90v6q-1 52 -28 112q-9 20 2 38t36 27zM704 1526q35 -77 39 -155q0 -9 1 -18q-1 -68 -23 -133 q-26 -74 -78.5 -142t-129.5 -127l-67 44q-15 10 -15 28q0 11 5.5 20t18.5 23q18 20 39.5 53.5t35.5 77.5q13 41 13 90v6q-1 52 -28 112q-9 20 2 38t36 27z"/>
<glyph glyph-name="dagger" d="M721 1005q34 5 69.5 12t69.5 13t66 11t61 5t49 -8.5t31.5 -23t15 -29.5t3.5 -26q0 -8 -1 -15l-9 -79h-372l-48 -393l-67 -797q-27 -15 -60 -22.5t-68 -7.5t-65 7.5t-53 22.5l128 797l48 393h-372l10 79q2 19 11 37.5t24.5 33t37.5 23t51 8.5q57 -1 123 -16t132 -26 l26 460q27 14 59.5 22t67.5 8q71 0 118 -30z" unicode="†"/>
<glyph glyph-name="daggerdbl" d="M723 1004q34 5 69.5 12t69.5 13.5t66 11.5t61 5t49 -8.5t31.5 -23t15 -29.5t3.5 -26q0 -8 -1 -15l-9 -79h-372l-39 -317l-34 -274h372l-10 -79q-2 -20 -11 -39t-24.5 -33.5t-37.5 -23t-50 -8.5q-28 1 -59 5.5t-64 11t-66.5 13.5t-66.5 12l-24 -458q-28 -15 -60.5 -22.5 t-67.5 -7.5q-73 0 -119 30l86 458q-34 -5 -69 -12t-69.5 -13.5t-67 -11.5t-60.5 -5q-29 0 -48.5 8.5t-31.5 23t-15.5 30.5t-3.5 29q0 7 1 13l10 79h372l34 274l39 317h-372l9 79q3 19 11.5 37.5t24 33t37.5 23t51 8.5q57 -1 123 -16t132 -25l27 459q26 14 58.5 22t67.5 8 t65.5 -8t53.5 -22z" unicode="‡"/>
<glyph glyph-name="ellipsis" horiz-adv-x="1544" unicode="…" d="M1099 136q0 31 11.5 59t32 48t48.5 32t60 12q31 0 59 -12t48.5 -32t32.5 -48t12 -59q0 -32 -12 -59.5t-32.5 -47.5t-48.5 -31.5t-59 -11.5q-32 0 -60 11.5t-48.5 31.5t-32 47.5t-11.5 59.5zM565 136q0 31 11.5 59t32 48t48.5 32t60 12q31 0 59 -12t48.5 -32t32.5 -48 t12 -59q0 -32 -12 -59.5t-32.5 -47.5t-48.5 -31.5t-59 -11.5q-32 0 -60 11.5t-48.5 31.5t-32 47.5t-11.5 59.5zM31 136q0 31 11.5 59t32 48t48.5 32t60 12q31 0 59 -12t48.5 -32t32.5 -48t12 -59q0 -32 -12 -59.5t-32.5 -47.5t-48.5 -31.5t-59 -11.5q-32 0 -60 11.5 t-48.5 31.5t-32 47.5t-11.5 59.5z"/>
<glyph glyph-name="perthousand" horiz-adv-x="2198" unicode="‰" d="M1918 394q0 84 -29.5 119.5t-74.5 35.5q-33 0 -61.5 -14.5t-49 -46t-32 -81t-11.5 -120.5q0 -81 28.5 -116t74.5 -35q32 0 60 13.5t49 44t33.5 80t12.5 120.5zM2103 395q0 -96 -31 -172.5t-81 -130t-115 -82t-132 -28.5q-60 0 -110 22t-85 61.5t-54.5 96t-19.5 125.5 q0 96 28 173.5t76.5 131.5t114 83.5t139.5 29.5q60 0 109.5 -22t85.5 -62.5t55.5 -97.5t19.5 -128zM1235 394q0 84 -29.5 119.5t-74.5 35.5q-33 0 -61.5 -14.5t-49.5 -46t-32.5 -81t-11.5 -120.5q0 -81 29 -116t75 -35q33 0 61 13.5t49 44t33 80t12 120.5zM1420 395 q0 -96 -31 -172.5t-81 -130t-115 -82t-132 -28.5q-60 0 -110 22t-85 61.5t-54.5 96t-19.5 125.5q0 96 28 173.5t76.5 131.5t114 83.5t139.5 29.5q60 0 110 -22t85.5 -62.5t55 -97.5t19.5 -128zM1230 1407q14 14 32.5 26t49.5 12h173l-1166 -1409q-14 -15 -32.5 -25.5 t-44.5 -10.5h-176zM573 1149q0 84 -29.5 120t-75.5 36q-33 0 -61 -14.5t-49 -46t-32.5 -81t-11.5 -120.5q0 -41 7.5 -70t21.5 -47t33 -26t42 -8q32 0 60.5 13.5t49.5 44t33 79.5t12 120zM758 1150q0 -96 -31 -172.5t-81.5 -130t-115.5 -82t-132 -28.5q-60 0 -109.5 21.5 t-84.5 61.5t-54.5 96.5t-19.5 126.5q0 95 28 172t76.5 131t114 83.5t139.5 29.5q60 0 110 -21.5t85.5 -62t55 -97.5t19.5 -128z"/>
<glyph glyph-name="guilsinglleft" horiz-adv-x="533" unicode="‹" d="M291 578q-19 -28 -36 -41q13 -13 26 -41l94 -239q13 -30 5 -55.5t-40 -39.5l-83 -36l-188 396l4 30l286 395l73 -37q31 -14 31 -42q0 -24 -19 -51z"/>
<glyph glyph-name="guilsinglright" horiz-adv-x="531" unicode="›" d="M443 552l-3 -30l-285 -396l-73 36q-31 15 -31 44q0 23 17 51l155 239q17 27 35 40q-14 14 -25 42l-97 239q-11 29 -2.5 54.5t40.5 38.5l82 37z"/>
<glyph glyph-name="uni203E" horiz-adv-x="1257" unicode="‾" d="M198 1712h1130l-22 -177h-1130z"/>
<glyph glyph-name="fraction" horiz-adv-x="280" unicode="⁄" d="M-207 71q-30 -42 -60.5 -56.5t-69.5 -14.5h-97l938 1363q29 39 61.5 60.5t76.5 21.5h98z"/>
<glyph glyph-name="Euro" d="M63 925h129q36 124 97.5 223t143 168t179.5 106t208 37q69 0 126 -14t103.5 -39.5t83 -61.5t64.5 -81l-95 -91q-11 -11 -22 -19t-31 -8t-35.5 17t-40 37.5t-64 37.5t-106.5 17q-127 0 -223 -84t-145 -245h516l-8 -75q-4 -21 -23.5 -39.5t-51.5 -18.5h-463 q-9 -57 -12 -119h434l-9 -72q-3 -23 -23.5 -41.5t-50.5 -18.5h-352q11 -172 81.5 -261t188.5 -89q49 0 86 9.5t64.5 23.5t48 30.5t36.5 30.5t30 23.5t28 9.5q11 0 18 -2.5t15 -13.5l92 -95q-83 -106 -198 -163.5t-257 -57.5q-114 0 -201.5 40.5t-147 114t-92 175.5 t-37.5 225h-131l16 132h117q2 31 5 60.5t8 58.5h-115z" unicode="€"/>
<glyph glyph-name="trademark" horiz-adv-x="1400" unicode="™" d="M1370 1445l-73 -602h-145l39 310l22 93l-173 -304q-24 -35 -62 -35h-22q-39 0 -52 35l-96 299l-2 -88l-38 -310h-143l73 602h142q21 0 30 -5t20 -21l82 -262q11 -35 17 -67q8 17 16 33.5t19 33.5l149 262q14 17 25 21.5t32 4.5h140zM619 1309h-149l-58 -466h-163l56 466 h-147l18 136h460z"/>
<glyph glyph-name="arrowleft" horiz-adv-x="2000" unicode="←" d="M96 647l586 585l86 -88q26 -26 21 -52.5t-29 -49.5l-208 -211q-29 -29 -54.5 -51.5t-48.5 -41.5q66 8 138 13.5t145 5.5h1159v-221h-1159q-74 0 -147 5t-139 14q24 -19 50.5 -42t55.5 -51l209 -212q25 -23 29.5 -50t-21.5 -53l-86 -87z"/>
<glyph glyph-name="arrowup" horiz-adv-x="1500" unicode="↑" d="M1336 983l-88 -85q-26 -26 -53 -20.5t-51 28.5l-207 211q-29 28 -52 53.5t-42 48.5q8 -65 13.5 -137t5.5 -144v-1164h-224v1164q0 73 5.5 145t13.5 138q-19 -24 -41.5 -49.5t-51.5 -54.5l-209 -212q-23 -24 -50 -29t-53 21l-89 85l588 587z"/>
<glyph glyph-name="arrowright" horiz-adv-x="2000" unicode="→" d="M1904 645l-586 -584l-86 87q-26 26 -21 52.5t29 50.5l208 210q29 29 54.5 51.5t49.5 41.5q-66 -8 -138.5 -13t-145.5 -5h-1159v221h1159q74 0 146.5 -5.5t138.5 -13.5q-48 38 -105 93l-209 212q-25 23 -29.5 49.5t21.5 52.5l86 88z"/>
<glyph glyph-name="arrowdown" horiz-adv-x="1500" unicode="↓" d="M1336 238l-588 -586l-585 585l89 85q26 26 52.5 21t50.5 -29l208 -211q57 -55 94 -103q-8 66 -13.5 137.5t-5.5 144.5v1164h223v-1164q0 -73 -5.5 -145t-13.5 -138q19 24 41.5 49.5t51.5 54.5l209 212q23 25 50.5 29.5t53.5 -21.5z"/>
<glyph glyph-name="partialdiff" horiz-adv-x="1089" unicode="∂" d="M366 1335q41 30 81.5 53t84 39t91.5 24.5t105 8.5q87 0 155 -38t112.5 -109.5t57.5 -149t13 -137.5q0 -57 -8 -120q-26 -207 -81.5 -377t-140.5 -291t-199.5 -187t-257.5 -66q-85 0 -153.5 30t-114 85.5t-61.5 119.5t-16 121q0 34 4 71q14 117 63.5 217.5t123.5 174.5 t167 116t195 42q88 0 147 -31.5t94 -89.5q2 17 4 33t4 31q7 58 7 106q0 103 -39.5 178.5t-133.5 75.5q-33 0 -64.5 -10t-59.5 -22t-50.5 -22t-37.5 -10q-14 0 -26.5 8t-23.5 32zM431 177q46 0 92.5 21.5t89.5 69t81 123t68 183.5q-4 39 -14.5 74.5t-30.5 62.5t-51 43.5 t-76 16.5q-64 0 -115 -26.5t-88 -74t-60.5 -112.5t-33.5 -143q-4 -31 -4 -59q0 -72 32 -125.5t110 -53.5z"/>
<glyph glyph-name="product" horiz-adv-x="1402" unicode="∏" d="M1412 1245h-171l-194 -1582h-245l193 1582h-436l-194 -1582h-245l194 1582h-170l24 200h1267z"/>
<glyph glyph-name="summation" horiz-adv-x="1264" unicode="∑" d="M1258 1239h-740l383 -648l-9 -71l-542 -648h740l-26 -207h-1114l11 86q2 18 11 37.5t24 35.5l630 735l-451 726q-12 17 -15.5 37t-0.5 38l10 86h1114z"/>
<glyph glyph-name="minus" d="M155 760h883l-22 -177h-882z" unicode="−"/>
<glyph glyph-name="radical" horiz-adv-x="1242" unicode="√" d="M1372 1707l-760 -1707h-200l-159 645h-128q-36 0 -58 19.5t-22 56.5q0 9 1 20l9 76h351q26 0 42.5 -13.5t20.5 -31.5l69 -325q8 -41 11 -78t3 -70v-19q10 34 22 68t26 70l543 1243q9 20 28.5 33t44.5 13h156z"/>
<glyph glyph-name="infinity" horiz-adv-x="1354" unicode="∞" d="M1003 951q63 0 115.5 -26.5t89 -74t50.5 -101.5t14 -100q0 -27 -4 -57q-10 -80 -43 -146t-81 -113.5t-107.5 -74t-122.5 -26.5q-50 0 -90 14.5t-71.5 39t-56.5 57t-45 69.5q-29 -37 -62 -69.5t-70.5 -57t-81 -39t-94.5 -14.5q-62 0 -114.5 26.5t-88.5 74t-50 101.5 t-14 101q0 28 4 57q10 79 43 145t81 113.5t107 74t121 26.5q51 0 91 -14t71.5 -38.5t56.5 -57.5t45 -70q29 37 62 70t70.5 57.5t81 38.5t93.5 14zM379 431q27 0 51.5 12.5t48 34t46 51t45.5 62.5q-15 34 -30.5 63t-33.5 51t-39.5 34.5t-48.5 12.5q-25 0 -49 -9t-43.5 -28.5 t-33.5 -50t-19 -72.5q-2 -19 -2 -35q0 -21 5 -45t20 -43.5t36.5 -28.5t46.5 -9zM1074 592q2 18 2 34q0 21 -5 45t-20 43.5t-36.5 28.5t-45.5 9q-27 0 -51.5 -12.5t-48 -34t-46 -51t-45.5 -62.5q15 -34 30 -63.5t33 -51t40 -34t49 -12.5q25 0 49 9t43.5 28.5t33 50t18.5 73.5 z"/>
<glyph glyph-name="intersection" horiz-adv-x="1203" unicode="∩" d="M82 651q0 95 34.5 180t99 148.5t155.5 101t205 37.5q113 0 204.5 -37.5t155.5 -101t98.5 -148.5t34.5 -180v-651h-160v651q0 73 -23 133t-66.5 102.5t-105 65.5t-138.5 23t-139 -23t-105 -65.5t-66 -102.5t-23 -133v-651h-161v651z"/>
<glyph glyph-name="approxequal" d="M779 537q31 0 61 7t55.5 17.5t44.5 22t27 20.5l11 -151q-45 -50 -108 -72.5t-129 -22.5q-53 0 -103.5 15.5t-98.5 34t-94 34t-90 15.5q-32 0 -62.5 -7t-56.5 -17.5t-45 -23t-27 -22.5l-17 145q45 55 110.5 80.5t135.5 25.5q53 0 104 -16t99 -34.5t94 -34.5t89 -16z M823 891q31 0 60.5 7t55 17.5t44.5 22t28 20.5l10 -150q-44 -51 -107.5 -74t-128.5 -23q-53 0 -103.5 16t-99 34.5t-94.5 34.5t-89 16q-32 0 -63 -7.5t-56.5 -18t-44.5 -23.5t-27 -23l-19 146q46 54 111.5 79.5t136.5 25.5q52 0 102.5 -15.5t99 -34.5t94.5 -34.5t90 -15.5z " unicode="≈"/>
<glyph glyph-name="notequal" d="M805 1159h171l-612 -987h-171z" unicode="≠"/>
<glyph glyph-name="equivalence" d="M145 413h819l-21 -177h-820zM231 1114h819l-21 -177h-820zM188 764h819l-21 -176h-820z" unicode="≡"/>
<glyph glyph-name="lessequal" d="M134 263h793l-24 -183h-792zM1043 1218l-20 -168q-3 -20 -15.5 -38t-47.5 -31l-372 -158q-27 -10 -56 -18t-61 -15q63 -14 109 -34l333 -161q31 -13 39.5 -31t6.5 -38l-21 -168l-746 382l3 25l10 74z" unicode="≤"/>
<glyph glyph-name="greaterequal" d="M1006 768l-3 -28l-839 -382l20 168q3 20 16 38t48 31l371 161q52 20 118 34q-59 13 -110 33l-333 158q-32 13 -40 31t-5 38l20 168l747 -379zM152 263h793l-23 -183h-793z" unicode="≥"/>
<glyph glyph-name="lozenge" d="M1061 720l-381 -811h-172l-381 811l381 811h172zM863 720l-234 501q-11 27 -19.5 50t-15.5 46q-7 -23 -15 -46t-19 -50l-230 -501l230 -501q11 -27 19 -50t15 -46q7 23 15.5 46t19.5 50z" unicode="◊"/>
<glyph glyph-name="grave.case" d="M442 1861q18 0 31.5 -1t23.5 -5.5t18 -12.5t17 -22l169 -271h-164q-27 0 -41.5 3.5t-30.5 20.5l-261 288h238z" horiz-adv-x="736"/>
<glyph glyph-name="acute.case" d="M978 1861l-330 -286q-21 -18 -37.5 -22t-42.5 -4h-164l223 271q11 14 21 22.5t21.5 12.5t25 5t31.5 1h252z" horiz-adv-x="736"/>
<glyph glyph-name="caron.case" d="M902 1824l-253 -275h-213l-191 275h165q14 0 33 -4t32 -26l69 -117q3 -5 6 -10.5t5 -10.5q4 5 7.5 10.5t8.5 10.5l94 116q17 22 37.5 26.5t34.5 4.5h165z" horiz-adv-x="736"/>
<glyph glyph-name="tilde.case" d="M675 1699q20 0 36 9t27 22.5t18 30t9 32.5h138q-6 -50 -23.5 -95.5t-45.5 -81t-66 -56.5t-84 -21q-47 0 -79.5 16t-58.5 34.5t-48 34.5t-47 16q-21 0 -36.5 -9t-26.5 -23t-17.5 -31t-8.5 -33h-141q6 49 24 95.5t46.5 82t66 57t83.5 21.5q47 0 80.5 -16t59 -34.5 t47.5 -34.5t47 -16z" horiz-adv-x="736"/>
<glyph glyph-name="dieresis.case" d="M890 1665q0 -28 -11 -52.5t-29.5 -43t-44 -29t-54.5 -10.5q-28 0 -53 10.5t-43.5 29t-29.5 43t-11 52.5t11 53.5t29.5 44.5t43.5 30t53 11q29 0 54.5 -11t44 -30t29.5 -44.5t11 -53.5zM491 1665q0 -28 -11 -52.5t-30.5 -43t-45 -29t-53.5 -10.5q-27 0 -51.5 10.5 t-43.5 29t-30 43t-11 52.5t11 53.5t30 44.5t43.5 30t51.5 11q28 0 53.5 -11t45 -30t30.5 -44.5t11 -53.5z" horiz-adv-x="736"/>
<glyph glyph-name="ring.case" d="M478 1706q-1 -7 -1 -13q-1 -30 15 -51q18 -25 60 -25q36 0 61 25t30 64q1 7 1 14q0 32 -16 52q-20 24 -57 25q-40 0 -64 -24.5t-29 -66.5zM369 1706q5 43 24.5 78.5t48.5 60.5t64.5 39t72.5 14q39 0 73 -14t58 -39q22 -25 34 -61q8 -25 9 -53q0 -12 -2 -25 q-5 -42 -24 -76t-48 -59t-66 -38.5t-76 -13.5q-37 0 -70 13.5t-56 38.5t-35 59q-8 24 -8 52q0 12 1 24z" horiz-adv-x="736"/>
<glyph glyph-name="theta.salt" d="M1243 1025l-11 -94q-3 -32 -24.5 -54t-61.5 -22h-68q-5 -191 -43 -350.5t-111.5 -275t-182 -180t-253.5 -64.5q-96 0 -165 31t-112 89t-59 139q-9 46 -8 98q0 40 5 84l22 178q3 22 3 39q0 33 -10 47q-16 22 -62 23h-59l11 89q5 38 46.5 62t114.5 24q48 0 88 -15.5 t66.5 -50t37.5 -88.5q6 -30 6 -66q0 -30 -4 -64l-21 -178q-4 -34 -4 -63q0 -73 25 -123q35 -68 119 -69q69 0 127 40.5t101.5 124.5t69.5 213t31 306q-122 2 -217 23t-160 59.5t-99.5 94t-34.5 126.5q0 67 23.5 122.5t67 95t106.5 61.5t143 22q77 0 142.5 -28t116 -82.5 t83.5 -136t45 -187.5h170zM564 1167q0 -30 15.5 -55t50 -43t89.5 -29t134 -14q-6 57 -19.5 105t-35.5 83t-51.5 54.5t-67.5 19.5q-56 0 -85.5 -32t-29.5 -89z" horiz-adv-x="1226"/>
<glyph glyph-name="one.dnom" d="M506 124l-14 -124h-414l16 124h139l43 357l11 49l-88 -64q-12 -9 -24 -11t-22 0t-17.5 7t-11.5 11l-43 74l255 193h144l-76 -616h102z" horiz-adv-x="668"/>
<glyph glyph-name="two.dnom" d="M487 154q27 0 40.5 -14t9.5 -39l-11 -101h-539l8 56q2 16 10.5 34.5t25.5 32.5l236 208q28 24 52 50t42 52.5t28.5 53t10.5 51.5q0 32 -18 52t-50 20q-35 0 -58 -17.5t-40 -49.5q-16 -22 -33 -30.5t-52 -3.5l-92 15q15 57 43.5 98.5t67.5 69.5t87 41.5t103 13.5 q53 0 93.5 -14.5t68 -40t41.5 -60.5t14 -76q0 -46 -15 -84t-40.5 -71.5t-58.5 -64.5t-69 -63l-150 -136q29 8 56.5 12.5t50.5 4.5h138z" horiz-adv-x="668"/>
<glyph glyph-name="three.dnom" d="M65 524q15 57 43.5 98.5t67 69.5t84.5 41.5t97 13.5q52 0 92 -14.5t67.5 -38.5t41.5 -56t14 -67q0 -67 -29.5 -112t-96.5 -69q50 -18 74.5 -50.5t24.5 -84.5q0 -67 -26 -116.5t-67.5 -82t-93.5 -48.5t-104 -16q-54 0 -95.5 10.5t-72 34t-50.5 61.5t-31 93l78 32 q30 11 54.5 5.5t32.5 -25.5q4 -11 10 -23.5t16.5 -23t26.5 -17t39 -6.5q51 0 81 31t30 76q0 43 -31 60.5t-107 17.5l14 119q85 1 119.5 24.5t34.5 76.5q0 32 -18 50.5t-54 18.5q-38 0 -61 -16.5t-37 -45.5q-16 -26 -32.5 -33.5t-48.5 -2.5z" horiz-adv-x="668"/>
<glyph glyph-name="four.dnom" d="M582 295l-11 -100q-2 -12 -11.5 -22t-25.5 -10h-63l-20 -163h-144l20 163h-290q-23 0 -35 10.5t-13 25.5l-6 85l394 455h165l-55 -444h95zM344 295l20 163q3 24 8 52t13 59l-231 -274h190z" horiz-adv-x="668"/>
<glyph glyph-name="glyph506" d="M-385 1712h1130l-22 -177h-1130z" horiz-adv-x="0"/>
<glyph glyph-name="glyph1471" d="M816 1292q0 -28 -11 -52.5t-30 -42.5t-44.5 -28.5t-53.5 -10.5t-53 10.5t-43.5 28.5t-29.5 42.5t-11 52.5q0 29 11 54.5t29.5 44.5t43.5 30t53 11t53.5 -11t44.5 -30t30 -44.5t11 -54.5zM496 1292q0 -28 -11 -52.5t-30.5 -42.5t-45 -28.5t-54.5 -10.5q-27 0 -51.5 10.5 t-43 28.5t-29.5 42.5t-11 52.5q0 29 11 54.5t29.5 44.5t43 30t51.5 11q29 0 54.5 -11t45 -30t30.5 -44.5t11 -54.5z" horiz-adv-x="736"/>
</font>
</defs>
</svg>
